lhm2001 发表于 2017-8-9 14:57:22

20170729 GNZ48 - 三队四曲联唱 [1.25GB/TS]

GNZ48 - 面包和奶油·N3ver Give Up·梅洛斯之路·蒲公英的脚印

http://wx4.sinaimg.cn/large/8b99b66ely1fidh91bfc1j20zk0ly117.jpg

General
ID                                       : 160 (0xA0)
Complete name                            : GNZ48 - 面包和奶油·N3ver Give Up·梅洛斯之路·蒲公英的脚印 .ts
Format                                 : MPEG-TS
File size                              : 1.25 GiB
Duration                                 : 11mn 39s
Overall bit rate mode                  : Variable
Overall bit rate                         : 15.4 Mbps

Video
ID                                       : 512 (0x200)
Menu ID                                  : 1 (0x1)
Format                                 : AVC
Format/Info                              : Advanced Video Codec
Format profile                           : Main@L4
Format settings, CABAC                   : Yes
Format settings, ReFrames                : 3 frames
Format settings, GOP                     : M=3, N=12
Codec ID                                 : 27
Duration                                 : 11mn 39s
Bit rate mode                            : Variable
Bit rate                                 : 14.1 Mbps
Maximum bit rate                         : 14.4 Mbps
Width                                    : 1 920 pixels
Height                                 : 1 080 pixels
Display aspect ratio                     : 16:9
Frame rate                               : 25.000 fps
Color space                              : YUV
Chroma subsampling                     : 4:2:0
Bit depth                              : 8 bits
Scan type                              : Interlaced
Scan order                               : Top Field First
Bits/(Pixel*Frame)                     : 0.272
Stream size                              : 1.15 GiB (92%)
Color range                              : Limited
Color primaries                        : BT.709
Transfer characteristics               : BT.709
Matrix coefficients                      : BT.709

Audio #1
ID                                       : 4112 (0x1010)
Menu ID                                  : 1 (0x1)
Format                                 : MPEG Audio
Format version                           : Version 1
Format profile                           : Layer 2
Mode                                     : Dual mono
Codec ID                                 : 3
Duration                                 : 11mn 39s
Bit rate mode                            : Constant
Bit rate                                 : 256 Kbps
Channel(s)                               : 2 channels
Sampling rate                            : 48.0 KHz
Compression mode                         : Lossy
Delay relative to video                  : -491ms
Stream size                              : 21.4 MiB (2%)

Audio #2
ID                                       : 4128 (0x1020)
Menu ID                                  : 1 (0x1)
Format                                 : MPEG Audio
Format version                           : Version 1
Format profile                           : Layer 2
Mode                                     : Dual mono
Codec ID                                 : 3
Duration                                 : 11mn 39s
Bit rate mode                            : Constant
Bit rate                                 : 256 Kbps
Channel(s)                               : 2 channels
Sampling rate                            : 48.0 KHz
Compression mode                         : Lossy
Delay relative to video                  : -491ms
Stream size                              : 21.4 MiB (2%)


链接: https://pan.baidu.com/s/1kV5NFOb 密码: 5bwr

BASARA 发表于 2017-8-9 16:40:14

多谢分享了~

heiny 发表于 2017-8-10 11:51:50

谢谢分享

i48阿历 发表于 2017-8-19 15:28:00

谢谢谢谢!
页: [1]
查看完整版本: 20170729 GNZ48 - 三队四曲联唱 [1.25GB/TS]