lhm2001 发表于 2017-8-11 23:00:35

【剧场公演】GNZ48 Team G 《双面偶像》

本帖最后由 lhm2001 于 2017-9-8 03:20 编辑

https://source2.48.cn/mediasource/live/1501664766124WxC38T9oJ4.jpg

GNZ48 Team G 《双面偶像》剧场公演:https://pan.baidu.com/s/1hsvMiwc 密码: ajww
GNZ48 剧场公演:https://pan.baidu.com/s/1eRI3qEm

lhm2001 发表于 2017-8-11 23:04:07

本帖最后由 lhm2001 于 2017-8-18 03:17 编辑

GNZ48 Team G 剧场公演《双面偶像》E01 新公演首演
http://wx4.sinaimg.cn/large/8b99b66ely1figk3didd8j20zk0lygsk.jpg
[直播源码 / 未重编码 / MP4封装 / 1920x1080 25p]
General
Complete name                            : GNZ48 Team G 剧场公演《双面偶像》E01 新公演首演 .mp4
Format                                 : MPEG-4
Format profile                           : Base Media
Codec ID                                 : isom
File size                              : 6.11 GiB
Duration                                 : 2h 50mn
Overall bit rate mode                  : Variable
Overall bit rate                         : 5 122 Kbps
Writing application                      : Lavf57.71.100

Video
ID                                       : 1
Format                                 : AVC
Format/Info                              : Advanced Video Codec
Format profile                           : High@L4
Format settings, CABAC                   : Yes
Format settings, ReFrames                : 2 frames
Codec ID                                 : avc1
Codec ID/Info                            : Advanced Video Coding
Duration                                 : 2h 50mn
Bit rate mode                            : Constant
Bit rate                                 : 5 000 Kbps
Width                                    : 1 920 pixels
Height                                 : 1 080 pixels
Display aspect ratio                     : 16:9
Frame rate mode                        : Constant
Frame rate                               : 25.000 fps
Color space                              : YUV
Chroma subsampling                     : 4:2:0
Bit depth                              : 8 bits
Scan type                              : Progressive
Bits/(Pixel*Frame)                     : 0.096
Stream size                              : 5.95 GiB (97%)

Audio
ID                                       : 2
Format                                 : AAC
Format/Info                              : Advanced Audio Codec
Format profile                           : LC
Codec ID                                 : 40
Duration                                 : 2h 50mn
Bit rate mode                            : Variable
Bit rate                                 : 126 Kbps
Maximum bit rate                         : 131 Kbps
Channel(s)                               : 2 channels
Channel positions                        : Front: L R
Sampling rate                            : 44.1 KHz
Compression mode                         : Lossy
Stream size                              : 153 MiB (2%)

本场直播信号稳定,视频完整无缺损。

BASARA 发表于 2017-8-11 23:39:52

多谢分享了~

忆丶萌咕咕 发表于 2017-8-12 09:36:21

                感谢分享。。。

heiny 发表于 2017-8-12 10:20:53

谢谢分享,赶紧补档

495772660 发表于 2017-8-13 11:20:07

怎么扒档啊,,

FUERMOQI 发表于 2017-8-13 22:56:53

本帖最后由 FUERMOQI 于 2017-8-13 23:00 编辑

多谢分享

夏下夏雨 发表于 2017-8-14 21:27:36

辛苦了,感谢分享与整理

snhpmss 发表于 2017-8-15 21:38:03

喜欢这套,来收高清版了。谢谢聚聚!

lhm2001 发表于 2017-8-18 03:22:00

后续在此帖更新。
页: [1] 2 3
查看完整版本: 【剧场公演】GNZ48 Team G 《双面偶像》