lhm2001 发表于 2017-8-20 13:25:46

【公演】20170819 Team NIII 《第1人称》E34

本帖最后由 lhm2001 于 2017-8-22 02:43 编辑

GNZ48 Team NIII 剧场公演《第1人称》E34
演出成员:GNZ48 Team NIII
陈慧婧 Chen Hui Jing
陈楠茜 Chen Nan Xi
陈欣妤 Chen Xin Yu
冯嘉希 Feng Jia Xi
高雪逸 Gao Xue Yi
洪静雯 Hong Jing Wen
李伊虹 Li Yi Hong
刘倩倩 Liu Qian Qian
卢 静 Lu Jing
唐莉佳 Tang Li Jia
冼燊楠 Xian Shen Nan
肖文铃 Xiao Wen Ling
谢艾琳 Xie Ai Lin
熊心瑶 Xiong Xin Yao
郑丹妮 Zheng Dan Ni
郑 悦 Zheng Yue
左嘉欣 Zuo Jia Xin
左婧媛 Zuo Jing Yuan
http://wx3.sinaimg.cn/large/8b99b66ely1firx24p8snj20z60d9dgf.jpg

http://wx4.sinaimg.cn/large/8b99b66ely1firx1f856aj20zk0ly458.jpg
[直播源码 / 未重编码 / MP4封装 / 1920x1080 25p]
General
Complete name                            : GNZ48 Team NIII 剧场公演《第1人称》E34 .mp4
Format                                 : MPEG-4
Format profile                           : Base Media
Codec ID                                 : isom
File size                              : 6.12 GiB
Duration                                 : 2h 51mn
Overall bit rate mode                  : Constant
Overall bit rate                         : 5 111 Kbps
Writing application                      : Lavf57.18.100

Video
ID                                       : 1
Format                                 : AVC
Format/Info                              : Advanced Video Codec
Format profile                           : High@L4
Format settings, CABAC                   : Yes
Format settings, ReFrames                : 2 frames
Codec ID                                 : avc1
Codec ID/Info                            : Advanced Video Coding
Duration                                 : 2h 51mn
Bit rate mode                            : Constant
Bit rate                                 : 5 000 Kbps
Width                                    : 1 920 pixels
Height                                 : 1 080 pixels
Display aspect ratio                     : 16:9
Frame rate mode                        : Constant
Frame rate                               : 25.000 fps
Color space                              : YUV
Chroma subsampling                     : 4:2:0
Bit depth                              : 8 bits
Scan type                              : Progressive
Bits/(Pixel*Frame)                     : 0.096
Stream size                              : 5.96 GiB (97%)

Audio
ID                                       : 2
Format                                 : AAC
Format/Info                              : Advanced Audio Codec
Format profile                           : LC
Codec ID                                 : 40
Duration                                 : 2h 51mn
Bit rate mode                            : Constant
Bit rate                                 : 126 Kbps
Channel(s)                               : 2 channels
Channel positions                        : Front: L R
Sampling rate                            : 44.1 KHz
Compression mode                         : Lossy
Stream size                              : 154 MiB (2%)


GNZ48 Team NIII 剧场公演《第一人称》:

链接:https://pan.baidu.com/s/1kVsRzsb 密码: snxw

lhm2001 发表于 2017-8-20 13:26:08

本帖最后由 lhm2001 于 2017-8-22 02:49 编辑

0:03:41直播信号全部中断,之后斗鱼信号先恢复,因此先接斗鱼3mbps信号,2分钟之后为5mbps官网信号,后面直播信号稳定,视频完整无缺损。

BASARA 发表于 2017-8-20 18:53:09

多谢分享了~
页: [1]
查看完整版本: 【公演】20170819 Team NIII 《第1人称》E34