lhm2001 发表于 2017-8-27 13:57:17

【公演】20170826 Team NIII 《第1人称》E36 左婧媛生日公演

本帖最后由 lhm2001 于 2017-8-31 05:37 编辑

https://source1.48.cn/mediasource/live/15028647191370c7YnKLL2X.jpg
GNZ48 Team NIII 剧场公演《第1人称》E36 左婧媛生日主题公演
演出成员:GNZ48 Team NIII
陈慧婧 Chen Hui Jing
陈楠茜 Chen Nan Xi
陈欣妤 Chen Xin Yu
冯嘉希 Feng Jia Xi
高雪逸 Gao Xue Yi
洪静雯 Hong Jing Wen
刘力菲 Liu Li Fei
卢 静 Lu Jing
唐莉佳 Tang Li Jia
唐诗怡 Tang Shi Yi
冼燊楠 Xian Shen Nan
肖文铃 Xiao Wen Ling
谢艾琳 Xie Ai Lin
熊心瑶 Xiong Xin Yao
郑 悦 Zheng Yue
左嘉欣 Zuo Jia Xin
左婧媛 Zuo Jing Yuan客串成员:
郑丹妮 Zheng Dan Ni
http://wx3.sinaimg.cn/large/8b99b66ely1fj184jsz4ij20z60e9jrz.jpg

http://wx2.sinaimg.cn/large/8b99b66ely1fiyt3ggdfyj20zk0lyn56.jpg
[直播源码 / 未重编码 / MP4封装 / 1920x1080 25p]
General
Complete name                            : GNZ48 Team NIII 剧场公演《第1人称》E36 左婧媛生日主题公演 .mp4
Format                                 : MPEG-4
Format profile                           : Base Media
Codec ID                                 : isom
File size                              : 6.46 GiB
Duration                                 : 3h 0mn
Overall bit rate mode                  : Constant
Overall bit rate                         : 5 134 Kbps
Writing application                      : Lavf54.61.104

Video
ID                                       : 1
Format                                 : AVC
Format/Info                              : Advanced Video Codec
Format profile                           : High@L4
Format settings, CABAC                   : Yes
Format settings, ReFrames                : 2 frames
Format settings, GOP                     : M=3, N=75
Codec ID                                 : avc1
Codec ID/Info                            : Advanced Video Coding
Duration                                 : 3h 0mn
Bit rate mode                            : Constant
Bit rate                                 : 5 000 Kbps
Width                                    : 1 920 pixels
Height                                 : 1 080 pixels
Display aspect ratio                     : 16:9
Frame rate mode                        : Constant
Frame rate                               : 25.000 fps
Color space                              : YUV
Chroma subsampling                     : 4:2:0
Bit depth                              : 8 bits
Scan type                              : Progressive
Bits/(Pixel*Frame)                     : 0.096
Stream size                              : 6.29 GiB (97%)

Audio
ID                                       : 2
Format                                 : AAC
Format/Info                              : Advanced Audio Codec
Format profile                           : LC
Codec ID                                 : 40
Duration                                 : 3h 0mn
Bit rate mode                            : Constant
Bit rate                                 : 126 Kbps
Channel(s)                               : 2 channels
Channel positions                        : Front: L R
Sampling rate                            : 44.1 KHz
Compression mode                         : Lossy
Stream size                              : 162 MiB (2%)


GNZ48 Team NIII 剧场公演《第一人称》:

链接:https://pan.baidu.com/s/1kVsRzsb 密码: snxw

lhm2001 发表于 2017-8-27 13:57:40

本场视频完整无缺损。

BASARA 发表于 2017-8-27 15:10:03

多谢分享了~
页: [1]
查看完整版本: 【公演】20170826 Team NIII 《第1人称》E36 左婧媛生日公演