lhm2001 发表于 2017-8-31 04:48:53

【综艺】20170712 GNZ48 午间特别节目 - Live 送「饭」E06

GNZ48 午间特别节目 - Live 送「饭」E06
http://wx3.sinaimg.cn/large/006k21T4ly1fhgw5l3kbrj30hs0vkgrq.jpg
http://wx4.sinaimg.cn/large/8b99b66ely1fj2fa27nlpj20zk0lydnf.jpg
[源码 / 未重编码 / MP4封装 / 1920x1080 25p]
(视频源:=B站直播;=斗鱼直播;=官网直播)
General
Complete name                            : GNZ48 午间特别节目 - Live 送「饭」E06 .mp4
Format                                 : MPEG-4
Format profile                           : Base Media
Codec ID                                 : isom
File size                              : 773 MiB
Duration                                 : 49mn 39s
Overall bit rate                         : 2 175 Kbps
Writing application                      : Lavf54.61.104

Video
ID                                       : 1
Format                                 : AVC
Format/Info                              : Advanced Video Codec
Format profile                           : High@L4
Format settings, CABAC                   : Yes
Format settings, ReFrames                : 4 frames
Codec ID                                 : avc1
Codec ID/Info                            : Advanced Video Coding
Duration                                 : 49mn 39s
Bit rate                                 : 2 002 Kbps
Width                                    : 1 920 pixels
Height                                 : 1 080 pixels
Display aspect ratio                     : 16:9
Frame rate mode                        : Variable
Frame rate                               : 30.000 fps
Minimum frame rate                     : 29.412 fps
Maximum frame rate                     : 2 045.455 fps
Color space                              : YUV
Chroma subsampling                     : 4:2:0
Bit depth                              : 8 bits
Scan type                              : Progressive
Bits/(Pixel*Frame)                     : 0.032
Stream size                              : 711 MiB (92%)

Audio
ID                                       : 2
Format                                 : AAC
Format/Info                              : Advanced Audio Codec
Format profile                           : LC
Codec ID                                 : 40
Duration                                 : 49mn 39s
Bit rate mode                            : Constant
Bit rate                                 : 162 Kbps
Channel(s)                               : 2 channels
Channel positions                        : Front: L R
Sampling rate                            : 44.1 KHz
Compression mode                         : Lossy
Stream size                              : 57.5 MiB (7%)

链接: https://pan.baidu.com/s/1kV21khD 密码: hbn8

BASARA 发表于 2017-8-31 10:48:30

多谢分享了
页: [1]
查看完整版本: 【综艺】20170712 GNZ48 午间特别节目 - Live 送「饭」E06