lhm2001 发表于 2017-9-4 17:01:39

【公演】20170903 Team NIII 《第1人称》E38 左嘉欣生日公演

本帖最后由 lhm2001 于 2017-9-5 05:08 编辑

GNZ48 Team NIII 剧场公演《第1人称》E38 左嘉欣生日主题公演
演出成员:GNZ48 Team NIII
陈慧婧 Chen Hui Jing
陈楠茜 Chen Nan Xi
陈欣妤 Chen Xin Yu
冯嘉希 Feng Jia Xi
高雪逸 Gao Xue Yi
洪静雯 Hong Jing Wen
刘力菲 Liu Li Fei
刘倩倩 Liu Qian Qian
卢 静 Lu Jing
孙 馨 Sun Xin
冼燊楠 Xian Shen Nan
肖文铃 Xiao Wen Ling
谢艾琳 Xie Ai Lin
郑 悦 Zheng Yue
左嘉欣 Zuo Jia Xin
左婧媛 Zuo Jing Yuan
http://wx1.sinaimg.cn/large/8b99b66ely1fj87gr6okmj20z60e90tf.jpg

http://wx4.sinaimg.cn/large/8b99b66ely1fj87hcw6e1j20zk0lyjzc.jpg
[直播源码 / 未重编码 / MP4封装 / 1920x1080 25p]
General
Complete name                            : GNZ48 Team NIII 剧场公演《第1人称》E38 左嘉欣生日主题公演 .mp4
Format                                 : MPEG-4
Format profile                           : Base Media
Codec ID                                 : isom
File size                              : 6.44 GiB
Duration                                 : 2h 59mn
Overall bit rate mode                  : Constant
Overall bit rate                         : 5 126 Kbps
Writing application                      : Lavf57.71.100

Video
ID                                       : 1
Format                                 : AVC
Format/Info                              : Advanced Video Codec
Format profile                           : High@L4
Format settings, CABAC                   : Yes
Format settings, ReFrames                : 2 frames
Format settings, GOP                     : M=3, N=75
Codec ID                                 : avc1
Codec ID/Info                            : Advanced Video Coding
Duration                                 : 2h 59mn
Bit rate mode                            : Constant
Bit rate                                 : 5 000 Kbps
Width                                    : 1 920 pixels
Height                                 : 1 080 pixels
Display aspect ratio                     : 16:9
Frame rate mode                        : Constant
Frame rate                               : 25.000 fps
Color space                              : YUV
Chroma subsampling                     : 4:2:0
Bit depth                              : 8 bits
Scan type                              : Progressive
Bits/(Pixel*Frame)                     : 0.096
Stream size                              : 6.27 GiB (97%)

Audio
ID                                       : 2
Format                                 : AAC
Format/Info                              : Advanced Audio Codec
Format profile                           : LC
Codec ID                                 : 40
Duration                                 : 2h 59mn
Bit rate mode                            : Constant
Bit rate                                 : 126 Kbps
Channel(s)                               : 2 channels
Channel positions                        : Front: L R
Sampling rate                            : 44.1 KHz
Compression mode                         : Lossy
Stream size                              : 162 MiB (2%)


GNZ48 Team NIII 剧场公演《第一人称》:

链接:https://pan.baidu.com/s/1kVsRzsb 密码: snxw

lhm2001 发表于 2017-9-4 17:04:26

生日合照处官网直播信号中断数秒,截取斗鱼直播信号填补,全场视频完整无缺。

BASARA 发表于 2017-9-4 18:16:12

多谢分享了~
页: [1]
查看完整版本: 【公演】20170903 Team NIII 《第1人称》E38 左嘉欣生日公演