lhm2001 发表于 2017-9-9 04:50:48

【公演】20170908 Team NIII 《第1人称》E39

本帖最后由 lhm2001 于 2017-9-15 06:30 编辑

GNZ48 Team NIII 剧场公演《第1人称》E39
演出成员:GNZ48 Team NIII
陈楠茜 Chen Nan Xi
陈欣妤 Chen Xin Yu
冯嘉希 Feng Jia Xi
高雪逸 Gao Xue Yi
洪静雯 Hong Jing Wen
刘力菲 Liu Li Fei
卢 静 Lu Jing
冼燊楠 Xian Shen Nan
肖文铃 Xiao Wen Ling
谢艾琳 Xie Ai Lin
郑 悦 Zheng Yue
左嘉欣 Zuo Jia Xin
左婧媛 Zuo Jing Yuan
http://wx3.sinaimg.cn/large/8b99b66ely1fjjuh5k7i8j20z60drwf4.jpg

http://wx3.sinaimg.cn/large/8b99b66ely1fjcuu1lo8vj20zk0lyq9f.jpg
[直播源码 / 未重编码 / MP4封装 / 1920x1080 25p]
General
Complete name                            : GNZ48 Team NIII 剧场公演《第1人称》E39 .mp4
Format                                 : MPEG-4
Format profile                           : Base Media
Codec ID                                 : isom
File size                              : 5.27 GiB
Duration                                 : 2h 27mn
Overall bit rate mode                  : Constant
Overall bit rate                         : 5 133 Kbps
Writing application                      : Lavf57.71.100

Video
ID                                       : 1
Format                                 : AVC
Format/Info                              : Advanced Video Codec
Format profile                           : High@L4
Format settings, CABAC                   : Yes
Format settings, ReFrames                : 2 frames
Format settings, GOP                     : M=3, N=75
Codec ID                                 : avc1
Codec ID/Info                            : Advanced Video Coding
Duration                                 : 2h 27mn
Bit rate mode                            : Constant
Bit rate                                 : 5 000 Kbps
Width                                    : 1 920 pixels
Height                                 : 1 080 pixels
Display aspect ratio                     : 16:9
Frame rate mode                        : Constant
Frame rate                               : 25.000 fps
Color space                              : YUV
Chroma subsampling                     : 4:2:0
Bit depth                              : 8 bits
Scan type                              : Progressive
Bits/(Pixel*Frame)                     : 0.096
Stream size                              : 5.14 GiB (97%)

Audio
ID                                       : 2
Format                                 : AAC
Format/Info                              : Advanced Audio Codec
Format profile                           : LC
Codec ID                                 : 40
Duration                                 : 2h 27mn
Bit rate mode                            : Constant
Bit rate                                 : 126 Kbps
Channel(s)                               : 2 channels
Channel positions                        : Front: L R
Sampling rate                            : 44.1 KHz
Compression mode                         : Lossy
Stream size                              : 132 MiB (2%)


GNZ48 Team NIII 剧场公演《第一人称》:

链接:https://pan.baidu.com/s/1kVsRzsb 密码: snxw

lhm2001 发表于 2017-9-9 04:51:30

本场视频完整无缺损。

BASARA 发表于 2017-9-9 16:07:12

多谢分享了~

kanezhu 发表于 2017-9-9 23:26:27

感谢!感谢!
页: [1]
查看完整版本: 【公演】20170908 Team NIII 《第1人称》E39