lhm2001 发表于 2017-9-11 03:43:13

GNZ48 Team Z《代号·林和西》公演宣传片

GNZ48 Team Z《代号·林和西》公演宣传片
http://wx2.sinaimg.cn/large/8b99b66ely1fjf37gluqmj20zk0lyafg.jpg
[源码 / 未重编码 / MP4封装 / 1920x1080 25p]
(视频源:=B站直播;=斗鱼直播;=官网直播)
General
Complete name                            : GNZ48 Team Z《代号·林和西》公演宣传片 .mp4
Format                                 : MPEG-4
Format profile                           : Base Media
Codec ID                                 : isom
File size                              : 275 MiB
Duration                                 : 7mn 33s
Overall bit rate mode                  : Constant
Overall bit rate                         : 5 097 Kbps
Writing application                      : Lavf57.71.100

Video
ID                                       : 1
Format                                 : AVC
Format/Info                              : Advanced Video Codec
Format profile                           : High@L4
Format settings, CABAC                   : Yes
Format settings, ReFrames                : 2 frames
Codec ID                                 : avc1
Codec ID/Info                            : Advanced Video Coding
Duration                                 : 7mn 33s
Bit rate mode                            : Constant
Bit rate                                 : 5 000 Kbps
Width                                    : 1 920 pixels
Height                                 : 1 080 pixels
Display aspect ratio                     : 16:9
Frame rate mode                        : Constant
Frame rate                               : 25.000 fps
Color space                              : YUV
Chroma subsampling                     : 4:2:0
Bit depth                              : 8 bits
Scan type                              : Progressive
Bits/(Pixel*Frame)                     : 0.096
Stream size                              : 268 MiB (97%)

Audio
ID                                       : 2
Format                                 : AAC
Format/Info                              : Advanced Audio Codec
Format profile                           : LC
Codec ID                                 : 40
Duration                                 : 7mn 33s
Bit rate mode                            : Constant
Bit rate                                 : 126 Kbps
Channel(s)                               : 2 channels
Channel positions                        : Front: L R
Sampling rate                            : 44.1 KHz
Compression mode                         : Lossy
Stream size                              : 6.78 MiB (2%)


链接: https://pan.baidu.com/s/1hrRulj2 密码: y8u6

lhm2001 发表于 2017-9-11 03:45:24

视频截取自公演直播。

BASARA 发表于 2017-9-11 10:17:51

多谢分享了~

snh48100724719 发表于 2018-10-7 03:07:10

hhhhhhhhhhttp://club.gnz48.com/home.php?mod=spacecp&ac=credit&op=rule&fid=44
页: [1]
查看完整版本: GNZ48 Team Z《代号·林和西》公演宣传片