lhm2001 发表于 2017-9-16 07:00:46

【剧场公演】GNZ48 Team Z 《代号·林和西》

本帖最后由 lhm2001 于 2017-9-20 21:37 编辑

https://source1.48.cn/mediasource/live/150469031888778LG76tQ6Y.jpg
http://wx4.sinaimg.cn/large/8b99b66ely1fjqcl5jvlaj20go0f0ae2.jpg

http://www.gnz48.com/event/g023/img/cycy/1.pnghttp://www.gnz48.com/event/g023/img/cycy/2.pnghttp://www.gnz48.com/event/g023/img/cycy/3.pnghttp://www.gnz48.com/event/g023/img/cycy/4.pnghttp://www.gnz48.com/event/g023/img/cycy/5.pnghttp://www.gnz48.com/event/g023/img/cycy/6.png
http://www.gnz48.com/event/g023/img/cycy/7.pnghttp://www.gnz48.com/event/g023/img/cycy/8.pnghttp://www.gnz48.com/event/g023/img/cycy/9.pnghttp://www.gnz48.com/event/g023/img/cycy/10.pnghttp://www.gnz48.com/event/g023/img/cycy/11.pnghttp://www.gnz48.com/event/g023/img/cycy/12.png
http://www.gnz48.com/event/g023/img/cycy/13.pnghttp://www.gnz48.com/event/g023/img/cycy/14.pnghttp://www.gnz48.com/event/g023/img/cycy/15.pnghttp://www.gnz48.com/event/g023/img/cycy/16.pnghttp://www.gnz48.com/event/g023/img/cycy/17.png

GNZ48 Team Z 《代号·林和西》:https://pan.baidu.com/s/1gfMndjd 密码: qrmc

lhm2001 发表于 2017-9-16 07:05:32

GNZ48 Team Z 剧场公演《代号·林和西》E01 新公演首演
http://wx4.sinaimg.cn/large/8b99b66ely1fjky957klsj20zk0lyqad.jpg
[直播源码 / 未重编码 / MP4封装 / 1920x1080 25p]
General
Complete name                            : GNZ48 Team Z 剧场公演《代号·林和西》E01 新公演首演 .mp4
Format                                 : MPEG-4
Format profile                           : Base Media
Codec ID                                 : isom
File size                              : 5.52 GiB
Duration                                 : 2h 39mn
Overall bit rate mode                  : Constant
Overall bit rate                         : 4 955 Kbps
Writing application                      : Lavf57.71.100

Video
ID                                       : 1
Format                                 : AVC
Format/Info                              : Advanced Video Codec
Format profile                           : High@L4
Format settings, CABAC                   : Yes
Format settings, ReFrames                : 2 frames
Codec ID                                 : avc1
Codec ID/Info                            : Advanced Video Coding
Duration                                 : 2h 39mn
Bit rate mode                            : Constant
Bit rate                                 : 5 000 Kbps
Width                                    : 1 920 pixels
Height                                 : 1 080 pixels
Display aspect ratio                     : 16:9
Frame rate mode                        : Constant
Frame rate                               : 25.000 fps
Color space                              : YUV
Chroma subsampling                     : 4:2:0
Bit depth                              : 8 bits
Scan type                              : Progressive
Bits/(Pixel*Frame)                     : 0.096
Stream size                              : 5.37 GiB (97%)

Audio
ID                                       : 2
Format                                 : AAC
Format/Info                              : Advanced Audio Codec
Format profile                           : LC
Codec ID                                 : 40
Duration                                 : 2h 39mn
Bit rate mode                            : Constant
Bit rate                                 : 126 Kbps
Channel(s)                               : 2 channels
Channel positions                        : Front: L R
Sampling rate                            : 44.1 KHz
Compression mode                         : Lossy
Stream size                              : 144 MiB (3%)


    本场官网直播在合照处中断数秒,击掌处中断数分钟,截取B站直播信号填补,整场视频完整无缺。

lhm2001 发表于 2017-9-16 07:08:22

本帖最后由 lhm2001 于 2017-9-19 13:28 编辑

GNZ48 Team Z 剧场公演《代号·林和西》E02
http://wx4.sinaimg.cn/large/8b99b66ely1fjot2zrtz6j20zk0lygsb.jpg
[直播源码 / 未重编码 / MP4封装 / 1920x1080 25p]
General
Complete name                            : GNZ48 Team Z 剧场公演《代号·林和西》E02 .mp4
Format                                 : MPEG-4
Format profile                           : Base Media
Codec ID                                 : isom
File size                              : 5.85 GiB
Duration                                 : 2h 43mn
Overall bit rate mode                  : Constant
Overall bit rate                         : 5 125 Kbps
Writing application                      : Lavf57.71.100

Video
ID                                       : 1
Format                                 : AVC
Format/Info                              : Advanced Video Codec
Format profile                           : High@L4
Format settings, CABAC                   : Yes
Format settings, ReFrames                : 2 frames
Codec ID                                 : avc1
Codec ID/Info                            : Advanced Video Coding
Duration                                 : 2h 43mn
Bit rate mode                            : Constant
Bit rate                                 : 5 000 Kbps
Width                                    : 1 920 pixels
Height                                 : 1 080 pixels
Display aspect ratio                     : 16:9
Frame rate mode                        : Constant
Frame rate                               : 25.000 fps
Color space                              : YUV
Chroma subsampling                     : 4:2:0
Bit depth                              : 8 bits
Scan type                              : Progressive
Bits/(Pixel*Frame)                     : 0.096
Stream size                              : 5.70 GiB (97%)

Audio
ID                                       : 2
Format                                 : AAC
Format/Info                              : Advanced Audio Codec
Format profile                           : LC
Codec ID                                 : 40
Duration                                 : 2h 43mn
Bit rate mode                            : Constant
Bit rate                                 : 128 Kbps
Channel(s)                               : 2 channels
Channel positions                        : Front: L R
Sampling rate                            : 44.1 KHz
Compression mode                         : Lossy
Stream size                              : 150 MiB (3%)


    本场信号稳定,视频完整无缺损。

lhm2001 发表于 2017-9-16 07:09:03

本帖最后由 lhm2001 于 2017-9-19 13:44 编辑

GNZ48 Team Z 剧场公演《代号·林和西》E03
http://wx4.sinaimg.cn/large/8b99b66ely1fjotg4p04jj20zk0lywle.jpg
[直播源码 / 未重编码 / MP4封装 / 1920x1080 25p]
General
Complete name                            : GNZ48 Team Z 剧场公演《代号·林和西》E03 .mp4
Format                                 : MPEG-4
Format profile                           : Base Media
Codec ID                                 : isom
File size                              : 5.18 GiB
Duration                                 : 2h 24mn
Overall bit rate mode                  : Constant
Overall bit rate                         : 5 122 Kbps
Writing application                      : Lavf57.71.100

Video
ID                                       : 1
Format                                 : AVC
Format/Info                              : Advanced Video Codec
Format profile                           : High@L4
Format settings, CABAC                   : Yes
Format settings, ReFrames                : 2 frames
Format settings, GOP                     : M=3, N=75
Codec ID                                 : avc1
Codec ID/Info                            : Advanced Video Coding
Duration                                 : 2h 24mn
Bit rate mode                            : Constant
Bit rate                                 : 5 000 Kbps
Width                                    : 1 920 pixels
Height                                 : 1 080 pixels
Display aspect ratio                     : 16:9
Frame rate mode                        : Constant
Frame rate                               : 25.000 fps
Color space                              : YUV
Chroma subsampling                     : 4:2:0
Bit depth                              : 8 bits
Scan type                              : Progressive
Bits/(Pixel*Frame)                     : 0.096
Stream size                              : 5.04 GiB (97%)

Audio
ID                                       : 2
Format                                 : AAC
Format/Info                              : Advanced Audio Codec
Format profile                           : LC
Codec ID                                 : 40
Duration                                 : 2h 24mn
Bit rate mode                            : Constant
Bit rate                                 : 126 Kbps
Channel(s)                               : 2 channels
Channel positions                        : Front: L R
Sampling rate                            : 44.1 KHz
Compression mode                         : Lossy
Stream size                              : 131 MiB (2%)


    本场直播信号中间卡顿处,截取官网回放完好信号替换,整场视频完整无缺损。

lhm2001 发表于 2017-9-16 07:09:27

4

[直播源码 / 未重编码 / MP4封装 / 1920x1080 25p]

    本场直播信号稳定,视频完整无缺损。

lhm2001 发表于 2017-9-16 07:09:58

5

[直播源码 / 未重编码 / MP4封装 / 1920x1080 25p]

    本场直播信号稳定,视频完整无缺损。

lhm2001 发表于 2017-9-16 07:13:45

6

[直播源码 / 未重编码 / MP4封装 / 1920x1080 25p]

    本场直播信号稳定,视频完整无缺损。

lhm2001 发表于 2017-9-16 07:14:06

7

[直播源码 / 未重编码 / MP4封装 / 1920x1080 25p]

    本场直播信号稳定,视频完整无缺损。

lhm2001 发表于 2017-9-16 07:14:23

8

[直播源码 / 未重编码 / MP4封装 / 1920x1080 25p]

    本场直播信号稳定,视频完整无缺损。

lhm2001 发表于 2017-9-16 07:14:46

9

[直播源码 / 未重编码 / MP4封装 / 1920x1080 25p]

    本场直播信号稳定,视频完整无缺损。
页: [1] 2
查看完整版本: 【剧场公演】GNZ48 Team Z 《代号·林和西》