lhm2001 发表于 2017-9-17 04:13:28

【公演】20170916 Team NIII 《第1人称》E41

GNZ48 Team NIII 剧场公演《第1人称》E41
演出成员:GNZ48 Team NIII
陈楠茜 Chen Nan Xi
陈欣妤 Chen Xin Yu
冯嘉希 Feng Jia Xi
高雪逸 Gao Xue Yi
洪静雯 Hong Jing Wen
刘力菲 Liu Li Fei
卢 静 Lu Jing
孙 馨 Sun Xin
唐莉佳 Tang Li Jia
冼燊楠 Xian Shen Nan
肖文铃 Xiao Wen Ling
谢艾琳 Xie Ai Lin
熊心瑶 Xiong Xin Yao
左嘉欣 Zuo Jia Xin
左婧媛 Zuo Jing Yuan
http://wx3.sinaimg.cn/large/8b99b66ely1fjm1tyaurcj20z60crq3i.jpg

http://wx4.sinaimg.cn/large/8b99b66ely1fjm1r0gsqej20zk0lytfq.jpg
[直播源码 / 未重编码 / MP4封装 / 1920x1080 25p]
General
Complete name                            : GNZ48 Team NIII 剧场公演《第1人称》E41 .mp4
Format                                 : MPEG-4
Format profile                           : Base Media
Codec ID                                 : isom
File size                              : 5.46 GiB
Duration                                 : 2h 32mn
Overall bit rate mode                  : Variable
Overall bit rate                         : 5 130 Kbps
Writing application                      : Lavf57.71.100

Video
ID                                       : 1
Format                                 : AVC
Format/Info                              : Advanced Video Codec
Format profile                           : High@L4
Format settings, CABAC                   : Yes
Format settings, ReFrames                : 2 frames
Format settings, GOP                     : M=3, N=75
Codec ID                                 : avc1
Codec ID/Info                            : Advanced Video Coding
Duration                                 : 2h 32mn
Bit rate mode                            : Constant
Bit rate                                 : 5 000 Kbps
Width                                    : 1 920 pixels
Height                                 : 1 080 pixels
Display aspect ratio                     : 16:9
Frame rate mode                        : Constant
Frame rate                               : 25.000 fps
Color space                              : YUV
Chroma subsampling                     : 4:2:0
Bit depth                              : 8 bits
Scan type                              : Progressive
Bits/(Pixel*Frame)                     : 0.096
Stream size                              : 5.32 GiB (97%)

Audio
ID                                       : 2
Format                                 : AAC
Format/Info                              : Advanced Audio Codec
Format profile                           : LC
Codec ID                                 : 40
Duration                                 : 2h 32mn
Bit rate mode                            : Variable
Bit rate                                 : 126 Kbps
Maximum bit rate                         : 131 Kbps
Channel(s)                               : 2 channels
Channel positions                        : Front: L R
Sampling rate                            : 44.1 KHz
Compression mode                         : Lossy
Stream size                              : 137 MiB (2%)


GNZ48 Team NIII 剧场公演《第一人称》:

链接:https://pan.baidu.com/s/1kVsRzsb 密码: snxw

lhm2001 发表于 2017-9-17 04:13:46

本场直播信号稳定,视频完整无缺损。

snh48011417717 发表于 2017-9-17 09:25:39

楼主辛苦了,这些公演基本上都是楼主上传的,还不要积分,谢谢了

BASARA 发表于 2017-9-17 10:45:20

多谢分享了~

lanazura 发表于 2017-9-19 12:59:24

感谢楼主辛苦付出
页: [1]
查看完整版本: 【公演】20170916 Team NIII 《第1人称》E41