lhm2001 发表于 2017-9-27 20:09:06

【公演】20170923 Team NIII 《第1人称》E42

GNZ48 Team NIII 剧场公演《第1人称》E42
演出成员:
GNZ48 Team NIII
陈楠茜 Chen Nan Xi
陈欣妤 Chen Xin Yu
冯嘉希 Feng Jia Xi
高雪逸 Gao Xue Yi
洪静雯 Hong Jing Wen
刘力菲 Liu Li Fei
卢 静 Lu Jing
唐莉佳 Tang Li Jia
唐诗怡 Tang Shi Yi
冼燊楠 Xian Shen Nan
肖文铃 Xiao Wen Ling
谢艾琳 Xie Ai Lin
熊心瑶 Xiong Xin Yao
左嘉欣 Zuo Jia Xin
左婧媛 Zuo Jing YuanGNZ48 Team Z
王秭歆 Wang Zi Xin
http://wx4.sinaimg.cn/large/8b99b66ely1fjydfzfigvj210h0draaq.jpg

http://wx1.sinaimg.cn/large/8b99b66ely1fjx7y03x5kj20zk0lytf6.jpg
[直播源码 / 未重编码 / MP4封装 / 1920x1080 25p]
General
Complete name                            : GNZ48 Team NIII 剧场公演《第1人称》E42 .mp4
Format                                 : MPEG-4
Format profile                           : Base Media
Codec ID                                 : isom
File size                              : 6.00 GiB
Duration                                 : 2h 48mn
Overall bit rate mode                  : Constant
Overall bit rate                         : 5 115 Kbps
Writing application                      : Lavf57.71.100

Video
ID                                       : 1
Format                                 : AVC
Format/Info                              : Advanced Video Codec
Format profile                           : High@L4
Format settings, CABAC                   : Yes
Format settings, ReFrames                : 2 frames
Format settings, GOP                     : M=3, N=75
Codec ID                                 : avc1
Codec ID/Info                            : Advanced Video Coding
Duration                                 : 2h 48mn
Bit rate mode                            : Constant
Bit rate                                 : 5 000 Kbps
Width                                    : 1 920 pixels
Height                                 : 1 080 pixels
Display aspect ratio                     : 16:9
Frame rate mode                        : Variable
Frame rate                               : 25.000 fps
Minimum frame rate                     : 0.192 fps
Maximum frame rate                     : 25.000 fps
Color space                              : YUV
Chroma subsampling                     : 4:2:0
Bit depth                              : 8 bits
Scan type                              : Progressive
Bits/(Pixel*Frame)                     : 0.096
Stream size                              : 5.85 GiB (97%)

Audio
ID                                       : 2
Format                                 : AAC
Format/Info                              : Advanced Audio Codec
Format profile                           : LC
Codec ID                                 : 40
Duration                                 : 2h 48mn
Bit rate mode                            : Constant
Bit rate                                 : 126 Kbps
Channel(s)                               : 2 channels
Channel positions                        : Front: L R
Sampling rate                            : 44.1 KHz
Compression mode                         : Lossy
Stream size                              : 151 MiB (2%)


GNZ48 Team NIII 剧场公演《第一人称》:

链接:https://pan.baidu.com/s/1kVsRzsb 密码: snxw

lhm2001 发表于 2017-9-27 20:16:18

MC2官网直播及回放中断处,截取斗鱼信号填补上,整场完整无缺。另外击掌环节有一处画面卡了一下未处理。

BASARA 发表于 2017-9-28 16:32:25

多谢分享了~
页: [1]
查看完整版本: 【公演】20170923 Team NIII 《第1人称》E42