lhm2001 发表于 2017-10-2 04:28:48

【剧场公演】GNZ48 《偶像研究计划》

本帖最后由 lhm2001 于 2017-10-9 04:45 编辑

http://www.gnz48.com/event/g024/img/oxyjjh.png
http://wx3.sinaimg.cn/large/8b99b66ely1fk3efnwyvtj20se0n0amp.jpg
http://www.gnz48.com/images/member/zp_30072.jpghttp://www.gnz48.com/images/member/zp_30073.jpghttp://www.gnz48.com/images/member/zp_30074.jpghttp://www.gnz48.com/images/member/zp_30075.jpghttp://www.gnz48.com/images/member/zp_30077.jpghttp://www.gnz48.com/images/member/zp_30076.jpghttp://www.gnz48.com/images/member/zp_30079.jpghttp://www.gnz48.com/images/member/zp_30080.jpghttp://www.gnz48.com/images/member/zp_30078.jpghttp://www.gnz48.com/images/member/zp_30081.jpghttp://www.gnz48.com/images/member/zp_30082.jpghttp://www.gnz48.com/images/member/zp_30083.jpghttp://www.gnz48.com/images/member/zp_30084.jpg


GNZ48 《偶像研究计划》剧场公演:https://pan.baidu.com/s/1i57qODn 密码:si2j
GNZ48 剧场公演:https://pan.baidu.com/s/1eRI3qEm

lhm2001 发表于 2017-10-2 04:39:35

本帖最后由 lhm2001 于 2017-10-9 04:47 编辑

官网回放(可下载可在线播放):
GNZ48 剧场公演《偶像研究计划》E01 三期生出道首演
GNZ48 剧场公演《偶像研究计划》E02
GNZ48 剧场公演《偶像研究计划》E03

lhm2001 发表于 2017-10-2 04:42:31

本帖最后由 lhm2001 于 2017-10-8 01:39 编辑

GNZ48 剧场公演《偶像研究计划》E01 三期生出道首演
http://wx3.sinaimg.cn/large/8b99b66ely1fka72vqr7xj20zk0lytfj.jpg
[直播源码 / 未重编码 / MP4封装 / 1920x1080 25p]
General
Complete name                            : GNZ48 剧场公演《偶像研究计划》E01 三期生出道首演 .mp4
Format                                 : MPEG-4
Format profile                           : Base Media
Codec ID                                 : isom
File size                              : 6.06 GiB
Duration                                 : 2h 49mn
Overall bit rate mode                  : Constant
Overall bit rate                         : 5 130 Kbps
Writing application                      : Lavf57.71.100

Video
ID                                       : 1
Format                                 : AVC
Format/Info                              : Advanced Video Codec
Format profile                           : High@L4
Format settings, CABAC                   : Yes
Format settings, ReFrames                : 2 frames
Format settings, GOP                     : M=3, N=75
Codec ID                                 : avc1
Codec ID/Info                            : Advanced Video Coding
Duration                                 : 2h 49mn
Bit rate mode                            : Constant
Bit rate                                 : 5 000 Kbps
Width                                    : 1 920 pixels
Height                                 : 1 080 pixels
Display aspect ratio                     : 16:9
Frame rate mode                        : Constant
Frame rate                               : 25.000 fps
Color space                              : YUV
Chroma subsampling                     : 4:2:0
Bit depth                              : 8 bits
Scan type                              : Progressive
Bits/(Pixel*Frame)                     : 0.096
Stream size                              : 5.91 GiB (97%)

Audio
ID                                       : 2
Format                                 : AAC
Format/Info                              : Advanced Audio Codec
Format profile                           : LC
Codec ID                                 : 40
Duration                                 : 2h 49mn
Bit rate mode                            : Constant
Bit rate                                 : 126 Kbps
Channel(s)                               : 2 channels
Channel positions                        : Front: L R
Sampling rate                            : 44.1 KHz
Compression mode                         : Lossy
Stream size                              : 152 MiB (2%)


    本场直播信号稳定,视频完整无缺损。

lhm2001 发表于 2017-10-2 04:42:49

本帖最后由 lhm2001 于 2017-10-8 01:38 编辑

GNZ48 剧场公演《偶像研究计划》E02
http://wx4.sinaimg.cn/large/8b99b66ely1fk49ua6oujj20zk0lytfd.jpg
[直播源码 / 未重编码 / MP4封装 / 1920x1080 25p]
General
Complete name                            : GNZ48 剧场公演《偶像研究计划》E02 .mp4
Format                                 : MPEG-4
Format profile                           : Base Media
Codec ID                                 : isom
File size                              : 5.68 GiB
Duration                                 : 2h 39mn
Overall bit rate mode                  : Constant
Overall bit rate                         : 5 107 Kbps
Writing application                      : Lavf57.71.100

Video
ID                                       : 1
Format                                 : AVC
Format/Info                              : Advanced Video Codec
Format profile                           : High@L4
Format settings, CABAC                   : Yes
Format settings, ReFrames                : 2 frames
Codec ID                                 : avc1
Codec ID/Info                            : Advanced Video Coding
Duration                                 : 2h 39mn
Bit rate mode                            : Constant
Bit rate                                 : 5 000 Kbps
Width                                    : 1 920 pixels
Height                                 : 1 080 pixels
Display aspect ratio                     : 16:9
Frame rate mode                        : Constant
Frame rate                               : 25.000 fps
Color space                              : YUV
Chroma subsampling                     : 4:2:0
Bit depth                              : 8 bits
Scan type                              : Progressive
Bits/(Pixel*Frame)                     : 0.096
Stream size                              : 5.53 GiB (97%)

Audio
ID                                       : 2
Format                                 : AAC
Format/Info                              : Advanced Audio Codec
Format profile                           : LC
Codec ID                                 : 40
Duration                                 : 2h 39mn
Bit rate mode                            : Constant
Bit rate                                 : 126 Kbps
Channel(s)                               : 2 channels
Channel positions                        : Front: L R
Sampling rate                            : 44.1 KHz
Compression mode                         : Lossy
Stream size                              : 143 MiB (2%)


    本场直播信号稳定,视频完整无缺损。

lhm2001 发表于 2017-10-2 04:43:10

本帖最后由 lhm2001 于 2017-10-8 01:46 编辑

GNZ48 剧场公演《偶像研究计划》E03
http://wx2.sinaimg.cn/large/8b99b66ely1fka72seiqfj20zk0ly7bl.jpg
[直播源码 / 未重编码 / MP4封装 / 1920x1080 25p]
General
Complete name                            : GNZ48 剧场公演《偶像研究计划》E03 .mp4
Format                                 : MPEG-4
Format profile                           : Base Media
Codec ID                                 : isom
File size                              : 5.37 GiB
Duration                                 : 2h 30mn
Overall bit rate mode                  : Constant
Overall bit rate                         : 5 125 Kbps
Writing application                      : Lavf57.71.100

Video
ID                                       : 1
Format                                 : AVC
Format/Info                              : Advanced Video Codec
Format profile                           : High@L4
Format settings, CABAC                   : Yes
Format settings, ReFrames                : 2 frames
Format settings, GOP                     : M=3, N=75
Codec ID                                 : avc1
Codec ID/Info                            : Advanced Video Coding
Duration                                 : 2h 30mn
Bit rate mode                            : Constant
Bit rate                                 : 5 000 Kbps
Width                                    : 1 920 pixels
Height                                 : 1 080 pixels
Display aspect ratio                     : 16:9
Frame rate mode                        : Constant
Frame rate                               : 25.000 fps
Color space                              : YUV
Chroma subsampling                     : 4:2:0
Bit depth                              : 8 bits
Scan type                              : Progressive
Bits/(Pixel*Frame)                     : 0.096
Stream size                              : 5.23 GiB (97%)

Audio
ID                                       : 2
Format                                 : AAC
Format/Info                              : Advanced Audio Codec
Format profile                           : LC
Codec ID                                 : 40
Duration                                 : 2h 30mn
Bit rate mode                            : Constant
Bit rate                                 : 126 Kbps
Channel(s)                               : 2 channels
Channel positions                        : Front: L R
Sampling rate                            : 44.1 KHz
Compression mode                         : Lossy
Stream size                              : 135 MiB (2%)


    本场直播信号稳定,视频完整无缺损。

lhm2001 发表于 2017-10-2 04:43:29

5

[直播源码 / 未重编码 / MP4封装 / 1920x1080 25p]


    本场直播信号稳定,视频完整无缺损。

lhm2001 发表于 2017-10-2 04:44:11

6

[直播源码 / 未重编码 / MP4封装 / 1920x1080 25p]


    本场直播信号稳定,视频完整无缺损。

lhm2001 发表于 2017-10-2 04:44:30

7

[直播源码 / 未重编码 / MP4封装 / 1920x1080 25p]


    本场直播信号稳定,视频完整无缺损。

lhm2001 发表于 2017-10-2 04:44:48

8

[直播源码 / 未重编码 / MP4封装 / 1920x1080 25p]


    本场直播信号稳定,视频完整无缺损。

lhm2001 发表于 2017-10-2 04:45:06

9

[直播源码 / 未重编码 / MP4封装 / 1920x1080 25p]


    本场直播信号稳定,视频完整无缺损。
页: [1] 2
查看完整版本: 【剧场公演】GNZ48 《偶像研究计划》