lhm2001 发表于 2017-10-4 18:09:51

【公演】20171004 Team G & Team Z 中秋节联合特别公演

本帖最后由 lhm2001 于 2017-10-8 02:21 编辑

GNZ48「中秋节」联合特别公演
https://source2.48.cn/mediasource/live/150589587836293h7hyLjSu.jpg
http://wx3.sinaimg.cn/large/8b99b66ely1fka8igyeuxj20zk0ly0zi.jpg
General
Complete name                            : GNZ48「中秋节」联合特别公演 .mp4
Format                                 : MPEG-4
Format profile                           : Base Media
Codec ID                                 : isom
File size                              : 6.92 GiB
Duration                                 : 3h 13mn
Overall bit rate mode                  : Constant
Overall bit rate                         : 5 130 Kbps
Writing application                      : Lavf57.71.100

Video
ID                                       : 1
Format                                 : AVC
Format/Info                              : Advanced Video Codec
Format profile                           : High@L4
Format settings, CABAC                   : Yes
Format settings, ReFrames                : 2 frames
Codec ID                                 : avc1
Codec ID/Info                            : Advanced Video Coding
Duration                                 : 3h 13mn
Bit rate mode                            : Constant
Bit rate                                 : 5 000 Kbps
Width                                    : 1 920 pixels
Height                                 : 1 080 pixels
Display aspect ratio                     : 16:9
Frame rate mode                        : Constant
Frame rate                               : 25.000 fps
Color space                              : YUV
Chroma subsampling                     : 4:2:0
Bit depth                              : 8 bits
Scan type                              : Progressive
Bits/(Pixel*Frame)                     : 0.096
Stream size                              : 6.74 GiB (97%)

Audio
ID                                       : 2
Format                                 : AAC
Format/Info                              : Advanced Audio Codec
Format profile                           : LC
Codec ID                                 : 40
Duration                                 : 3h 13mn
Bit rate mode                            : Constant
Bit rate                                 : 126 Kbps
Channel(s)                               : 2 channels
Channel positions                        : Front: L R
Sampling rate                            : 44.1 KHz
Compression mode                         : Lossy
Stream size                              : 173 MiB (2%)


本场直播信号稳定,视频完整无缺损。链接:https://pan.baidu.com/s/1eRI3qEm

官网回放(可下载可在线播放):http://ts.snh48.com/vod/z1.chaoqing.3001/20171004/59c225c60cf25f588029b751.mp4

BASARA 发表于 2017-10-4 21:35:19

多谢分享了~

XXYvonne 发表于 2017-10-7 21:41:10

感谢~聚聚辛苦了!

gavinboy 发表于 2017-11-4 11:11:15

感謝分享~
另外聚聚能順便分享萬聖節特殊公演嗎?
萬分感謝

aoyoutian 发表于 2018-10-17 01:42:24

多谢分享~
页: [1]
查看完整版本: 【公演】20171004 Team G & Team Z 中秋节联合特别公演