lhm2001 发表于 2017-10-9 03:55:24

【公演】20171005 Team NIII 《第1人称》E44

GNZ48 Team NIII 剧场公演《第1人称》E44
演出成员:GNZ48 Team NIII
陈慧婧 Chen Hui Jing
陈楠茜 Chen Nan Xi
陈欣妤 Chen Xin Yu
冯嘉希 Feng Jia Xi
洪静雯 Hong Jing Wen
李伊虹 Li Yi Hong
刘力菲 Liu Li Fei
刘倩倩 Liu Qian Qian
卢 静 Lu Jing
孙 馨 Sun Xin
唐莉佳 Tang Li Jia
冼燊楠 Xian Shen Nan
肖文铃 Xiao Wen Ling
熊心瑶 Xiong Xin Yao
郑丹妮 Zheng Dan Ni
左嘉欣 Zuo Jia Xin
左婧媛 Zuo Jing Yuan
http://wx1.sinaimg.cn/large/8b99b66ely1fkbgx878btj20z60dr74w.jpg

http://wx4.sinaimg.cn/large/8b99b66ely1fkbgm4jm9nj20zk0lygs6.jpg
[直播源码 / 未重编码 / MP4封装 / 1920x1080 25p]
General
Complete name                            : GNZ48 Team NIII 剧场公演《第1人称》E44 .mp4
Format                                 : MPEG-4
Format profile                           : Base Media
Codec ID                                 : isom
File size                              : 6.85 GiB
Duration                                 : 3h 11mn
Overall bit rate mode                  : Constant
Overall bit rate                         : 5 110 Kbps
Writing application                      : Lavf57.71.100

Video
ID                                       : 1
Format                                 : AVC
Format/Info                              : Advanced Video Codec
Format profile                           : High@L4
Format settings, CABAC                   : Yes
Format settings, ReFrames                : 2 frames
Format settings, GOP                     : M=3, N=75
Codec ID                                 : avc1
Codec ID/Info                            : Advanced Video Coding
Duration                                 : 3h 11mn
Bit rate mode                            : Constant
Bit rate                                 : 5 000 Kbps
Width                                    : 1 920 pixels
Height                                 : 1 080 pixels
Display aspect ratio                     : 16:9
Frame rate mode                        : Constant
Frame rate                               : 25.000 fps
Color space                              : YUV
Chroma subsampling                     : 4:2:0
Bit depth                              : 8 bits
Scan type                              : Progressive
Bits/(Pixel*Frame)                     : 0.096
Stream size                              : 6.67 GiB (97%)

Audio
ID                                       : 2
Format                                 : AAC
Format/Info                              : Advanced Audio Codec
Format profile                           : LC
Codec ID                                 : 40
Duration                                 : 3h 11mn
Bit rate mode                            : Constant
Bit rate                                 : 127 Kbps
Channel(s)                               : 2 channels
Channel positions                        : Front: L R
Sampling rate                            : 44.1 KHz
Compression mode                         : Lossy
Stream size                              : 174 MiB (2%)


GNZ48 Team NIII 剧场公演《第一人称》:

链接:https://pan.baidu.com/s/1kVsRzsb 密码: snxw

lhm2001 发表于 2017-10-9 04:09:10

本场官网直播信号不稳定中断数次,官网回放视频文件也坏了,后面音频错位。
因此本视频文件由官网直播、官网回放、哔哩直播共7段完好文件拼接而成:
0:00:00~1:23:18 官网回放
1:23:18~1:44:00 官网直播
1:44:00~1:44:42 哔哩直播
1:44:42~2:01:09 官网直播
2:01:09~2:01:51 哔哩直播
2:01:51~2:26:48 官网直播
2:26:48~3:11:54 官网直播
其中2段哔哩直播42秒视频为3mbps,其余为5mbps。

整场公演视频完整无缺。

BASARA 发表于 2017-10-9 15:23:18

多谢分享了~

ninjaja 发表于 2017-10-18 14:13:31

厉害了!!!

concert1994 发表于 2017-12-20 00:26:08

辛苦了!!!

snh48051612434 发表于 2018-5-8 18:51:39

很好我已经下载全部的分多次才能下载完毕再次感谢:)
页: [1]
查看完整版本: 【公演】20171005 Team NIII 《第1人称》E44