设为首页收藏本站

查看: 5785|回复: 23

[视频资源] 【剧场公演】GNZ48 Team G 《双面偶像》

[复制链接]

213

主题

353

帖子

737

积分

高级会员

Rank: 4

积分
737
发表于 2017-8-11 23:00:35 | 显示全部楼层 |阅读模式
本帖最后由 lhm2001 于 2017-9-8 03:20 编辑



GNZ48 Team G 《双面偶像》剧场公演:https://pan.baidu.com/s/1hsvMiwc 密码: ajww
GNZ48 剧场公演:https://pan.baidu.com/s/1eRI3qEm
回复

使用道具 举报

213

主题

353

帖子

737

积分

高级会员

Rank: 4

积分
737
 楼主| 发表于 2017-8-11 23:04:07 | 显示全部楼层
本帖最后由 lhm2001 于 2017-8-18 03:17 编辑
GNZ48 Team G 剧场公演《双面偶像》E01 新公演首演 [2017-08-11 19:30]

[直播源码 / 未重编码 / MP4封装 / 1920x1080 25p]

General
Complete name                            : GNZ48 Team G 剧场公演《双面偶像》E01 新公演首演 [2017-08-11 19.30][5m1080p25][SH].mp4
Format                                   : MPEG-4
Format profile                           : Base Media
Codec ID                                 : isom
File size                                : 6.11 GiB
Duration                                 : 2h 50mn
Overall bit rate mode                    : Variable
Overall bit rate                         : 5 122 Kbps
Writing application                      : Lavf57.71.100

Video
ID                                       : 1
Format                                   : AVC
Format/Info                              : Advanced Video Codec
Format profile                           : High@L4
Format settings, CABAC                   : Yes
Format settings, ReFrames                : 2 frames
Codec ID                                 : avc1
Codec ID/Info                            : Advanced Video Coding
Duration                                 : 2h 50mn
Bit rate mode                            : Constant
Bit rate                                 : 5 000 Kbps
Width                                    : 1 920 pixels
Height                                   : 1 080 pixels
Display aspect ratio                     : 16:9
Frame rate mode                          : Constant
Frame rate                               : 25.000 fps
Color space                              : YUV
Chroma subsampling                       : 4:2:0
Bit depth                                : 8 bits
Scan type                                : Progressive
Bits/(Pixel*Frame)                       : 0.096
Stream size                              : 5.95 GiB (97%)

Audio
ID                                       : 2
Format                                   : AAC
Format/Info                              : Advanced Audio Codec
Format profile                           : LC
Codec ID                                 : 40
Duration                                 : 2h 50mn
Bit rate mode                            : Variable
Bit rate                                 : 126 Kbps
Maximum bit rate                         : 131 Kbps
Channel(s)                               : 2 channels
Channel positions                        : Front: L R
Sampling rate                            : 44.1 KHz
Compression mode                         : Lossy
Stream size                              : 153 MiB (2%)

本场直播信号稳定,视频完整无缺损。
回复 支持 反对

使用道具 举报

0

主题

307

帖子

1049

积分

金牌会员

Rank: 6Rank: 6

积分
1049
发表于 2017-8-11 23:39:52 | 显示全部楼层
多谢分享了~
回复 支持 反对

使用道具 举报

0

主题

18

帖子

52

积分

正式会员

Rank: 2

积分
52
发表于 2017-8-12 09:36:21 | 显示全部楼层
                感谢分享。。。
回复 支持 反对

使用道具 举报

39

主题

63

帖子

227

积分

中级会员

Rank: 3Rank: 3

积分
227
发表于 2017-8-12 10:20:53 | 显示全部楼层
谢谢分享,赶紧补档
回复 支持 反对

使用道具 举报

0

主题

3

帖子

47

积分

练习生

Rank: 1

积分
47
发表于 2017-8-13 11:20:07 | 显示全部楼层
怎么扒档啊,,
回复 支持 反对

使用道具 举报

0

主题

2

帖子

10

积分

练习生

Rank: 1

积分
10
发表于 2017-8-13 22:56:53 | 显示全部楼层
本帖最后由 FUERMOQI 于 2017-8-13 23:00 编辑

多谢分享
回复

使用道具 举报

1

主题

13

帖子

31

积分

练习生

Rank: 1

积分
31
发表于 2017-8-14 21:27:36 | 显示全部楼层
辛苦了,感谢分享与整理
回复 支持 反对

使用道具 举报

1

主题

5

帖子

7

积分

练习生

Rank: 1

积分
7
发表于 2017-8-15 21:38:03 | 显示全部楼层
喜欢这套,来收高清版了。谢谢聚聚!
回复 支持 反对

使用道具 举报

213

主题

353

帖子

737

积分

高级会员

Rank: 4

积分
737
 楼主| 发表于 2017-8-18 03:22:00 | 显示全部楼层
后续在此帖更新。
回复 支持 反对

使用道具 举报

您需要登录后才可以回帖 登录 | 立即注册

本版积分规则

Archiver|手机版|小黑屋|GNZ48官方粉丝俱乐部 ( 粤ICP备16056161号  

GMT+8, 2019-1-19 02:12 , Processed in 0.051558 second(s), 17 queries , Apc On.

Powered by Discuz! X3.2

© 2001-2013 Comsenz Inc.

快速回复 返回顶部 返回列表