设为首页收藏本站

123
返回列表 发新帖
楼主: lhm2001

[视频资源] 【剧场公演】GNZ48 Team G 《双面偶像》

[复制链接]

213

主题

353

帖子

737

积分

高级会员

Rank: 4

积分
737
 楼主| 发表于 2017-9-24 03:36:12 | 显示全部楼层
本帖最后由 lhm2001 于 2017-9-24 03:38 编辑
GNZ48 Team G 剧场公演《双面偶像》E11 [2017-09-22 19:33]

[直播源码 / 未重编码 / MP4封装 / 1920x1080 25p]

General
Complete name                            : GNZ48 Team G 剧场公演《双面偶像》E11 [2017-09-22 19.33][5m1080p25][SP+SS 0-21-24].mp4
Format                                   : MPEG-4
Format profile                           : Base Media
Codec ID                                 : isom
File size                                : 5.87 GiB
Duration                                 : 2h 43mn
Overall bit rate mode                    : Variable
Overall bit rate                         : 5 127 Kbps
Writing application                      : Lavf57.71.100

Video
ID                                       : 1
Format                                   : AVC
Format/Info                              : Advanced Video Codec
Format profile                           : High@L4
Format settings, CABAC                   : Yes
Format settings, ReFrames                : 2 frames
Format settings, GOP                     : M=3, N=75
Codec ID                                 : avc1
Codec ID/Info                            : Advanced Video Coding
Duration                                 : 2h 43mn
Bit rate mode                            : Constant
Bit rate                                 : 5 000 Kbps
Width                                    : 1 920 pixels
Height                                   : 1 080 pixels
Display aspect ratio                     : 16:9
Frame rate mode                          : Constant
Frame rate                               : 25.000 fps
Color space                              : YUV
Chroma subsampling                       : 4:2:0
Bit depth                                : 8 bits
Scan type                                : Progressive
Bits/(Pixel*Frame)                       : 0.096
Stream size                              : 5.72 GiB (97%)

Audio
ID                                       : 2
Format                                   : AAC
Format/Info                              : Advanced Audio Codec
Format profile                           : LC
Codec ID                                 : 40
Duration                                 : 2h 43mn
Bit rate mode                            : Variable
Bit rate                                 : 127 Kbps
Maximum bit rate                         : 128 Kbps
Channel(s)                               : 2 channels
Channel positions                        : Front: L R
Sampling rate                            : 44.1 KHz
Compression mode                         : Lossy
Stream size                              : 149 MiB (2%)


    0:21:24处直播信号中断数秒,除此之外本场公演视频完整无缺损。
回复 支持 反对

使用道具 举报

213

主题

353

帖子

737

积分

高级会员

Rank: 4

积分
737
 楼主| 发表于 2017-10-8 02:01:08 | 显示全部楼层
GNZ48 Team G 剧场公演《双面偶像》E12 [2017-09-24 19:07]

[直播源码 / 未重编码 / MP4封装 / 1920x1080 25p]

General
Complete name                            : GNZ48 Team G 剧场公演《双面偶像》E12 [2017-09-24 19.07][5m1080p25][SS+SP(2-34-51)].mp4
Format                                   : MPEG-4
Format profile                           : Base Media
Codec ID                                 : isom
File size                                : 5.92 GiB
Duration                                 : 2h 44mn
Overall bit rate mode                    : Constant
Overall bit rate                         : 5 136 Kbps
Writing application                      : Lavf57.71.100

Video
ID                                       : 1
Format                                   : AVC
Format/Info                              : Advanced Video Codec
Format profile                           : High@L4
Format settings, CABAC                   : Yes
Format settings, ReFrames                : 2 frames
Format settings, GOP                     : M=3, N=75
Codec ID                                 : avc1
Codec ID/Info                            : Advanced Video Coding
Duration                                 : 2h 44mn
Bit rate mode                            : Constant
Bit rate                                 : 5 000 Kbps
Width                                    : 1 920 pixels
Height                                   : 1 080 pixels
Display aspect ratio                     : 16:9
Frame rate mode                          : Constant
Frame rate                               : 25.000 fps
Color space                              : YUV
Chroma subsampling                       : 4:2:0
Bit depth                                : 8 bits
Scan type                                : Progressive
Bits/(Pixel*Frame)                       : 0.096
Stream size                              : 5.76 GiB (97%)

Audio
ID                                       : 2
Format                                   : AAC
Format/Info                              : Advanced Audio Codec
Format profile                           : LC
Codec ID                                 : 40
Duration                                 : 2h 44mn
Bit rate mode                            : Constant
Bit rate                                 : 128 Kbps
Channel(s)                               : 2 channels
Channel positions                        : Front: L R
Sampling rate                            : 44.1 KHz
Compression mode                         : Lossy
Stream size                              : 151 MiB (2%)


    本场视频完整无缺损。
回复 支持 反对

使用道具 举报

213

主题

353

帖子

737

积分

高级会员

Rank: 4

积分
737
 楼主| 发表于 2017-10-8 02:02:24 | 显示全部楼层
GNZ48 Team G 剧场公演《双面偶像》E13 [2017-10-06 14:08]

[直播源码 / 未重编码 / MP4封装 / 1920x1080 25p]

General
Complete name                            : GNZ48 Team G 剧场公演《双面偶像》E13 [2017-10-06 14.08][5m1080p25][SP].mp4
Format                                   : MPEG-4
Format profile                           : Base Media
Codec ID                                 : isom
File size                                : 6.76 GiB
Duration                                 : 3h 8mn
Overall bit rate mode                    : Constant
Overall bit rate                         : 5 133 Kbps
Writing application                      : Lavf57.71.100

Video
ID                                       : 1
Format                                   : AVC
Format/Info                              : Advanced Video Codec
Format profile                           : High@L4
Format settings, CABAC                   : Yes
Format settings, ReFrames                : 2 frames
Format settings, GOP                     : M=3, N=75
Codec ID                                 : avc1
Codec ID/Info                            : Advanced Video Coding
Duration                                 : 3h 8mn
Bit rate mode                            : Constant
Bit rate                                 : 5 000 Kbps
Width                                    : 1 920 pixels
Height                                   : 1 080 pixels
Display aspect ratio                     : 16:9
Frame rate mode                          : Constant
Frame rate                               : 25.000 fps
Color space                              : YUV
Chroma subsampling                       : 4:2:0
Bit depth                                : 8 bits
Scan type                                : Progressive
Bits/(Pixel*Frame)                       : 0.096
Stream size                              : 6.58 GiB (97%)

Audio
ID                                       : 2
Format                                   : AAC
Format/Info                              : Advanced Audio Codec
Format profile                           : LC
Codec ID                                 : 40
Duration                                 : 3h 8mn
Bit rate mode                            : Constant
Bit rate                                 : 126 Kbps
Channel(s)                               : 2 channels
Channel positions                        : Front: L R
Sampling rate                            : 44.1 KHz
Compression mode                         : Lossy
Stream size                              : 169 MiB (2%)

    本场直播信号稳定,视频完整无缺损。
回复 支持 反对

使用道具 举报

0

主题

2

帖子

4

积分

练习生

Rank: 1

积分
4
发表于 2017-12-17 19:50:14 | 显示全部楼层
感谢楼主
回复

使用道具 举报

您需要登录后才可以回帖 登录 | 立即注册

本版积分规则

Archiver|手机版|小黑屋|GNZ48官方粉丝俱乐部 ( 粤ICP备16056161号  

GMT+8, 2019-1-23 07:26 , Processed in 0.039113 second(s), 9 queries , Apc On.

Powered by Discuz! X3.2

© 2001-2013 Comsenz Inc.

快速回复 返回顶部 返回列表