设为首页收藏本站

查看: 979|回复: 2

[视频资源] 【公演】20170826 Team NIII 《第1人称》E36 左婧媛生日公演

[复制链接]

213

主题

353

帖子

737

积分

高级会员

Rank: 4

积分
737
发表于 2017-8-27 13:57:17 | 显示全部楼层 |阅读模式
本帖最后由 lhm2001 于 2017-8-31 05:37 编辑

GNZ48 Team NIII 剧场公演《第1人称》E36 左婧媛生日主题公演 [2017-08-26 14:13]

演出成员:GNZ48 Team NIII
  1. 陈慧婧 Chen Hui Jing
  2. 陈楠茜 Chen Nan Xi
  3. 陈欣妤 Chen Xin Yu
  4. 冯嘉希 Feng Jia Xi
  5. 高雪逸 Gao Xue Yi
  6. 洪静雯 Hong Jing Wen
  7. 刘力菲 Liu Li Fei
  8. 卢 静 Lu Jing
  9. 唐莉佳 Tang Li Jia
  10. 唐诗怡 Tang Shi Yi
  11. 冼燊楠 Xian Shen Nan
  12. 肖文铃 Xiao Wen Ling
  13. 谢艾琳 Xie Ai Lin
  14. 熊心瑶 Xiong Xin Yao
  15. 郑 悦 Zheng Yue
  16. 左嘉欣 Zuo Jia Xin
  17. 左婧媛 Zuo Jing Yuan
复制代码
客串成员:
  1. 郑丹妮 Zheng Dan Ni
复制代码




[直播源码 / 未重编码 / MP4封装 / 1920x1080 25p]

General
Complete name                            : GNZ48 Team NIII 剧场公演《第1人称》E36 左婧媛生日主题公演 [2017-08-26 14.13][5m1080p25][SH(S)].mp4
Format                                   : MPEG-4
Format profile                           : Base Media
Codec ID                                 : isom
File size                                : 6.46 GiB
Duration                                 : 3h 0mn
Overall bit rate mode                    : Constant
Overall bit rate                         : 5 134 Kbps
Writing application                      : Lavf54.61.104

Video
ID                                       : 1
Format                                   : AVC
Format/Info                              : Advanced Video Codec
Format profile                           : High@L4
Format settings, CABAC                   : Yes
Format settings, ReFrames                : 2 frames
Format settings, GOP                     : M=3, N=75
Codec ID                                 : avc1
Codec ID/Info                            : Advanced Video Coding
Duration                                 : 3h 0mn
Bit rate mode                            : Constant
Bit rate                                 : 5 000 Kbps
Width                                    : 1 920 pixels
Height                                   : 1 080 pixels
Display aspect ratio                     : 16:9
Frame rate mode                          : Constant
Frame rate                               : 25.000 fps
Color space                              : YUV
Chroma subsampling                       : 4:2:0
Bit depth                                : 8 bits
Scan type                                : Progressive
Bits/(Pixel*Frame)                       : 0.096
Stream size                              : 6.29 GiB (97%)

Audio
ID                                       : 2
Format                                   : AAC
Format/Info                              : Advanced Audio Codec
Format profile                           : LC
Codec ID                                 : 40
Duration                                 : 3h 0mn
Bit rate mode                            : Constant
Bit rate                                 : 126 Kbps
Channel(s)                               : 2 channels
Channel positions                        : Front: L R
Sampling rate                            : 44.1 KHz
Compression mode                         : Lossy
Stream size                              : 162 MiB (2%)


GNZ48 Team NIII 剧场公演《第一人称》:

链接:https://pan.baidu.com/s/1kVsRzsb 密码: snxw
回复

使用道具 举报

213

主题

353

帖子

737

积分

高级会员

Rank: 4

积分
737
 楼主| 发表于 2017-8-27 13:57:40 | 显示全部楼层
本场视频完整无缺损。
回复 支持 反对

使用道具 举报

0

主题

307

帖子

1049

积分

金牌会员

Rank: 6Rank: 6

积分
1049
发表于 2017-8-27 15:10:03 | 显示全部楼层
多谢分享了~
回复 支持 反对

使用道具 举报

您需要登录后才可以回帖 登录 | 立即注册

本版积分规则

Archiver|手机版|小黑屋|GNZ48官方粉丝俱乐部 ( 粤ICP备16056161号  

GMT+8, 2019-1-19 02:14 , Processed in 0.038559 second(s), 10 queries , Apc On.

Powered by Discuz! X3.2

© 2001-2013 Comsenz Inc.

快速回复 返回顶部 返回列表