设为首页收藏本站

查看: 927|回复: 1

[视频资源] 【综艺】20170712 GNZ48 午间特别节目 - Live 送「饭」E06

[复制链接]

213

主题

353

帖子

737

积分

高级会员

Rank: 4

积分
737
发表于 2017-8-31 04:48:53 | 显示全部楼层 |阅读模式
GNZ48 午间特别节目 - Live 送「饭」E06 [2017-07-12 12.30]


[源码 / 未重编码 / MP4封装 / 1920x1080 25p]
(视频源:[B]=B站直播;[D]=斗鱼直播;[S]=官网直播)

General
Complete name                            : GNZ48 午间特别节目 - Live 送「饭」E06 [2017-07-12 12.30][2m1080p30][S].mp4
Format                                   : MPEG-4
Format profile                           : Base Media
Codec ID                                 : isom
File size                                : 773 MiB
Duration                                 : 49mn 39s
Overall bit rate                         : 2 175 Kbps
Writing application                      : Lavf54.61.104

Video
ID                                       : 1
Format                                   : AVC
Format/Info                              : Advanced Video Codec
Format profile                           : High@L4
Format settings, CABAC                   : Yes
Format settings, ReFrames                : 4 frames
Codec ID                                 : avc1
Codec ID/Info                            : Advanced Video Coding
Duration                                 : 49mn 39s
Bit rate                                 : 2 002 Kbps
Width                                    : 1 920 pixels
Height                                   : 1 080 pixels
Display aspect ratio                     : 16:9
Frame rate mode                          : Variable
Frame rate                               : 30.000 fps
Minimum frame rate                       : 29.412 fps
Maximum frame rate                       : 2 045.455 fps
Color space                              : YUV
Chroma subsampling                       : 4:2:0
Bit depth                                : 8 bits
Scan type                                : Progressive
Bits/(Pixel*Frame)                       : 0.032
Stream size                              : 711 MiB (92%)

Audio
ID                                       : 2
Format                                   : AAC
Format/Info                              : Advanced Audio Codec
Format profile                           : LC
Codec ID                                 : 40
Duration                                 : 49mn 39s
Bit rate mode                            : Constant
Bit rate                                 : 162 Kbps
Channel(s)                               : 2 channels
Channel positions                        : Front: L R
Sampling rate                            : 44.1 KHz
Compression mode                         : Lossy
Stream size                              : 57.5 MiB (7%)

链接: https://pan.baidu.com/s/1kV21khD 密码: hbn8
回复

使用道具 举报

0

主题

307

帖子

1049

积分

金牌会员

Rank: 6Rank: 6

积分
1049
发表于 2017-8-31 10:48:30 | 显示全部楼层
多谢分享了
回复 支持 反对

使用道具 举报

您需要登录后才可以回帖 登录 | 立即注册

本版积分规则

Archiver|手机版|小黑屋|GNZ48官方粉丝俱乐部 ( 粤ICP备16056161号  

GMT+8, 2019-1-19 02:46 , Processed in 0.040452 second(s), 12 queries , Apc On.

Powered by Discuz! X3.2

© 2001-2013 Comsenz Inc.

快速回复 返回顶部 返回列表