设为首页收藏本站

查看: 1019|回复: 3

[视频资源] 【公演】20170901 Team NIII 《第1人称》E37

[复制链接]

213

主题

353

帖子

737

积分

高级会员

Rank: 4

积分
737
发表于 2017-9-2 04:27:51 | 显示全部楼层 |阅读模式
GNZ48 Team NIII 剧场公演《第1人称》E37 [2017-09-01 19:32]

演出成员:GNZ48 Team NIII
  1. 陈慧婧 Chen Hui Jing
  2. 陈楠茜 Chen Nan Xi
  3. 陈欣妤 Chen Xin Yu
  4. 冯嘉希 Feng Jia Xi
  5. 洪静雯 Hong Jing Wen
  6. 李伊虹 Li Yi Hong
  7. 刘倩倩 Liu Qian Qian
  8. 卢 静 Lu Jing
  9. 唐诗怡 Tang Shi Yi
  10. 冼燊楠 Xian Shen Nan
  11. 肖文铃 Xiao Wen Ling
  12. 熊心瑶 Xiong Xin Yao
  13. 郑丹妮 Zheng Dan Ni
  14. 郑 悦 Zheng Yue
  15. 左嘉欣 Zuo Jia Xin
  16. 左婧媛 Zuo Jing Yuan
复制代码




[直播源码 / 未重编码 / MP4封装 / 1920x1080 25p]

General
Complete name                            : GNZ48 Team NIII 剧场公演《第1人称》E37 [2017-09-01 19.32][5m1080p25][SH].mp4
Format                                   : MPEG-4
Format profile                           : Base Media
Codec ID                                 : isom
File size                                : 5.93 GiB
Duration                                 : 2h 45mn
Overall bit rate mode                    : Variable
Overall bit rate                         : 5 132 Kbps
Writing application                      : Lavf57.71.100

Video
ID                                       : 1
Format                                   : AVC
Format/Info                              : Advanced Video Codec
Format profile                           : High@L4
Format settings, CABAC                   : Yes
Format settings, ReFrames                : 2 frames
Format settings, GOP                     : M=3, N=75
Codec ID                                 : avc1
Codec ID/Info                            : Advanced Video Coding
Duration                                 : 2h 45mn
Bit rate mode                            : Constant
Bit rate                                 : 5 000 Kbps
Width                                    : 1 920 pixels
Height                                   : 1 080 pixels
Display aspect ratio                     : 16:9
Frame rate mode                          : Constant
Frame rate                               : 25.000 fps
Color space                              : YUV
Chroma subsampling                       : 4:2:0
Bit depth                                : 8 bits
Scan type                                : Progressive
Bits/(Pixel*Frame)                       : 0.096
Stream size                              : 5.77 GiB (97%)

Audio
ID                                       : 2
Format                                   : AAC
Format/Info                              : Advanced Audio Codec
Format profile                           : LC
Codec ID                                 : 40
Duration                                 : 2h 45mn
Bit rate mode                            : Variable
Bit rate                                 : 126 Kbps
Maximum bit rate                         : 131 Kbps
Channel(s)                               : 2 channels
Channel positions                        : Front: L R
Sampling rate                            : 44.1 KHz
Compression mode                         : Lossy
Stream size                              : 149 MiB (2%)


GNZ48 Team NIII 剧场公演《第一人称》:

链接:https://pan.baidu.com/s/1kVsRzsb 密码: snxw
回复

使用道具 举报

213

主题

353

帖子

737

积分

高级会员

Rank: 4

积分
737
 楼主| 发表于 2017-9-2 04:28:50 | 显示全部楼层
本场直播信号稳定,视频完整无缺损。
回复 支持 反对

使用道具 举报

0

主题

18

帖子

52

积分

正式会员

Rank: 2

积分
52
发表于 2017-9-2 09:37:16 | 显示全部楼层
               多谢分享。。
回复 支持 反对

使用道具 举报

0

主题

307

帖子

1049

积分

金牌会员

Rank: 6Rank: 6

积分
1049
发表于 2017-9-2 12:15:16 | 显示全部楼层
多谢分享了~
回复 支持 反对

使用道具 举报

您需要登录后才可以回帖 登录 | 立即注册

本版积分规则

Archiver|手机版|小黑屋|GNZ48官方粉丝俱乐部 ( 粤ICP备16056161号  

GMT+8, 2019-1-19 02:09 , Processed in 0.042267 second(s), 16 queries , Apc On.

Powered by Discuz! X3.2

© 2001-2013 Comsenz Inc.

快速回复 返回顶部 返回列表