设为首页收藏本站

查看: 1100|回复: 3

[视频资源] GNZ48 Team Z《代号·林和西》公演宣传片

[复制链接]

213

主题

353

帖子

737

积分

高级会员

Rank: 4

积分
737
发表于 2017-9-11 03:43:13 | 显示全部楼层 |阅读模式
GNZ48 Team Z《代号·林和西》公演宣传片

[源码 / 未重编码 / MP4封装 / 1920x1080 25p]
(视频源:[B]=B站直播;[D]=斗鱼直播;[S]=官网直播)

General
Complete name                            : GNZ48 Team Z《代号·林和西》公演宣传片 [5m1080p25][SP].mp4
Format                                   : MPEG-4
Format profile                           : Base Media
Codec ID                                 : isom
File size                                : 275 MiB
Duration                                 : 7mn 33s
Overall bit rate mode                    : Constant
Overall bit rate                         : 5 097 Kbps
Writing application                      : Lavf57.71.100

Video
ID                                       : 1
Format                                   : AVC
Format/Info                              : Advanced Video Codec
Format profile                           : High@L4
Format settings, CABAC                   : Yes
Format settings, ReFrames                : 2 frames
Codec ID                                 : avc1
Codec ID/Info                            : Advanced Video Coding
Duration                                 : 7mn 33s
Bit rate mode                            : Constant
Bit rate                                 : 5 000 Kbps
Width                                    : 1 920 pixels
Height                                   : 1 080 pixels
Display aspect ratio                     : 16:9
Frame rate mode                          : Constant
Frame rate                               : 25.000 fps
Color space                              : YUV
Chroma subsampling                       : 4:2:0
Bit depth                                : 8 bits
Scan type                                : Progressive
Bits/(Pixel*Frame)                       : 0.096
Stream size                              : 268 MiB (97%)

Audio
ID                                       : 2
Format                                   : AAC
Format/Info                              : Advanced Audio Codec
Format profile                           : LC
Codec ID                                 : 40
Duration                                 : 7mn 33s
Bit rate mode                            : Constant
Bit rate                                 : 126 Kbps
Channel(s)                               : 2 channels
Channel positions                        : Front: L R
Sampling rate                            : 44.1 KHz
Compression mode                         : Lossy
Stream size                              : 6.78 MiB (2%)


链接: https://pan.baidu.com/s/1hrRulj2 密码: y8u6
回复

使用道具 举报

213

主题

353

帖子

737

积分

高级会员

Rank: 4

积分
737
 楼主| 发表于 2017-9-11 03:45:24 | 显示全部楼层
视频截取自公演直播。
回复 支持 反对

使用道具 举报

0

主题

307

帖子

1049

积分

金牌会员

Rank: 6Rank: 6

积分
1049
发表于 2017-9-11 10:17:51 | 显示全部楼层
多谢分享了~
回复 支持 反对

使用道具 举报

2

主题

23

帖子

31

积分

练习生

Rank: 1

积分
31
发表于 2018-10-7 03:07:10 | 显示全部楼层
回复 支持 反对

使用道具 举报

您需要登录后才可以回帖 登录 | 立即注册

本版积分规则

Archiver|手机版|小黑屋|GNZ48官方粉丝俱乐部 ( 粤ICP备16056161号  

GMT+8, 2019-1-19 02:23 , Processed in 0.044164 second(s), 13 queries , Apc On.

Powered by Discuz! X3.2

© 2001-2013 Comsenz Inc.

快速回复 返回顶部 返回列表