设为首页收藏本站

查看: 693|回复: 1

[视频资源] 【晚会】20170912 GNZ48 大地飞歌 [南宁国际民歌艺术节][558MB/TS]

[复制链接]

213

主题

353

帖子

737

积分

高级会员

Rank: 4

积分
737
发表于 2017-9-14 20:33:27 | 显示全部楼层 |阅读模式
本帖最后由 lhm2001 于 2017-9-14 22:17 编辑
GNZ48 - 大地飞歌 [第19届南宁国际民歌艺术节『大地飞歌·2017』晚会 2017-09-12]

演出成员:GNZ48 Team G + Team NIII

[1920x1080 50i]

ID                                       : 1 (0x1)
Complete name                            : GNZ48 - 大地飞歌 [第19届南宁国际民歌艺术节『大地飞歌·2017』晚会][SNG 2017-09-12].ts
Format                                   : MPEG-TS
File size                                : 558 MiB
Duration                                 : 5mn 5s
Overall bit rate mode                    : Variable
Overall bit rate                         : 15.3 Mbps

Video
ID                                       : 33 (0x21)
Menu ID                                  : 1 (0x1)
Format                                   : AVC
Format/Info                              : Advanced Video Codec
Format profile                           : Main@L4
Format settings, CABAC                   : Yes
Format settings, ReFrames                : 4 frames
Codec ID                                 : 27
Duration                                 : 5mn 5s
Bit rate                                 : 14.4 Mbps
Width                                    : 1 920 pixels
Height                                   : 1 080 pixels
Display aspect ratio                     : 16:9
Frame rate                               : 25.000 fps
Color space                              : YUV
Chroma subsampling                       : 4:2:0
Bit depth                                : 8 bits
Scan type                                : Interlaced
Scan order                               : Top Field First
Bits/(Pixel*Frame)                       : 0.277
Stream size                              : 523 MiB (94%)
Color range                              : Limited
Color primaries                          : BT.709
Transfer characteristics                 : BT.709
Matrix coefficients                      : BT.709

Audio
ID                                       : 34 (0x22)
Menu ID                                  : 1 (0x1)
Format                                   : MPEG Audio
Format version                           : Version 1
Format profile                           : Layer 2
Codec ID                                 : 3
Duration                                 : 5mn 5s
Bit rate mode                            : Constant
Bit rate                                 : 192 Kbps
Channel(s)                               : 2 channels
Sampling rate                            : 48.0 KHz
Compression mode                         : Lossy
Delay relative to video                  : -509ms
Stream size                              : 7.00 MiB (1%)
Language                                 : English

Menu
ID                                       : 32 (0x20)
Menu ID                                  : 1 (0x1)
Duration                                 : 5mn 5s
List                                     : 33 (0x21) (AVC) / 34 (0x22) (MPEG Audio, English)
Language                                 :  / English
Maximum bit rate                         : 200000000

链接: https://pan.baidu.com/s/1slocEHR 密码: 9a74
回复

使用道具 举报

0

主题

307

帖子

1049

积分

金牌会员

Rank: 6Rank: 6

积分
1049
发表于 2017-9-15 16:08:30 | 显示全部楼层
多谢分享了~
回复 支持 反对

使用道具 举报

您需要登录后才可以回帖 登录 | 立即注册

本版积分规则

Archiver|手机版|小黑屋|GNZ48官方粉丝俱乐部 ( 粤ICP备16056161号  

GMT+8, 2019-1-19 03:01 , Processed in 0.034875 second(s), 10 queries , Apc On.

Powered by Discuz! X3.2

© 2001-2013 Comsenz Inc.

快速回复 返回顶部 返回列表