设为首页收藏本站

查看: 695|回复: 3

[视频资源] 【公演】20170910 Team NIII 《第1人称》E40

[复制链接]

213

主题

353

帖子

737

积分

高级会员

Rank: 4

积分
737
发表于 2017-9-15 06:35:28 | 显示全部楼层 |阅读模式
GNZ48 Team NIII 剧场公演《第1人称》E40 [2017-09-10 14:00]

演出成员:GNZ48 Team NIII
  1. 陈楠茜 Chen Nan Xi
  2. 陈欣妤 Chen Xin Yu
  3. 冯嘉希 Feng Jia Xi
  4. 高雪逸 Gao Xue Yi
  5. 刘力菲 Liu Li Fei
  6. 卢 静 Lu Jing
  7. 唐莉佳 Tang Li Jia
  8. 冼燊楠 Xian Shen Nan
  9. 肖文铃 Xiao Wen Ling
  10. 谢艾琳 Xie Ai Lin
  11. 郑 悦 Zheng Yue
  12. 左婧媛 Zuo Jing Yuan
复制代码




[直播源码 / 未重编码 / MP4封装 / 1920x1080 25p]

General
Complete name                            : GNZ48 Team NIII 剧场公演《第1人称》E40 [2017-09-10 14.00][5m1080p25][SP].mp4
Format                                   : MPEG-4
Format profile                           : Base Media
Codec ID                                 : isom
File size                                : 5.31 GiB
Duration                                 : 2h 28mn
Overall bit rate mode                    : Constant
Overall bit rate                         : 5 133 Kbps
Writing application                      : Lavf57.71.100

Video
ID                                       : 1
Format                                   : AVC
Format/Info                              : Advanced Video Codec
Format profile                           : High@L4
Format settings, CABAC                   : Yes
Format settings, ReFrames                : 2 frames
Format settings, GOP                     : M=3, N=75
Codec ID                                 : avc1
Codec ID/Info                            : Advanced Video Coding
Duration                                 : 2h 28mn
Bit rate mode                            : Constant
Bit rate                                 : 5 000 Kbps
Width                                    : 1 920 pixels
Height                                   : 1 080 pixels
Display aspect ratio                     : 16:9
Frame rate mode                          : Constant
Frame rate                               : 25.000 fps
Color space                              : YUV
Chroma subsampling                       : 4:2:0
Bit depth                                : 8 bits
Scan type                                : Progressive
Bits/(Pixel*Frame)                       : 0.096
Stream size                              : 5.17 GiB (97%)

Audio
ID                                       : 2
Format                                   : AAC
Format/Info                              : Advanced Audio Codec
Format profile                           : LC
Codec ID                                 : 40
Duration                                 : 2h 28mn
Bit rate mode                            : Constant
Bit rate                                 : 126 Kbps
Channel(s)                               : 2 channels
Channel positions                        : Front: L R
Sampling rate                            : 44.1 KHz
Compression mode                         : Lossy
Stream size                              : 133 MiB (2%)


GNZ48 Team NIII 剧场公演《第一人称》:

链接:https://pan.baidu.com/s/1kVsRzsb 密码: snxw
回复

使用道具 举报

213

主题

353

帖子

737

积分

高级会员

Rank: 4

积分
737
 楼主| 发表于 2017-9-15 06:36:35 | 显示全部楼层
本场直播信号稳定,视频完整无缺损。
回复 支持 反对

使用道具 举报

213

主题

353

帖子

737

积分

高级会员

Rank: 4

积分
737
 楼主| 发表于 2017-9-15 06:40:51 | 显示全部楼层
GNZ48 Team NIII 剧场公演《第一人称》前40场小计

回复 支持 反对

使用道具 举报

0

主题

307

帖子

1049

积分

金牌会员

Rank: 6Rank: 6

积分
1049
发表于 2017-9-15 16:09:32 | 显示全部楼层
多谢分享了~
回复 支持 反对

使用道具 举报

您需要登录后才可以回帖 登录 | 立即注册

本版积分规则

Archiver|手机版|小黑屋|GNZ48官方粉丝俱乐部 ( 粤ICP备16056161号  

GMT+8, 2019-1-19 02:39 , Processed in 0.043420 second(s), 13 queries , Apc On.

Powered by Discuz! X3.2

© 2001-2013 Comsenz Inc.

快速回复 返回顶部 返回列表