设为首页收藏本站

查看: 1868|回复: 13

[视频资源] 【剧场公演】GNZ48 Team Z 《代号·林和西》

[复制链接]

213

主题

353

帖子

737

积分

高级会员

Rank: 4

积分
737
发表于 2017-9-16 07:00:46 | 显示全部楼层 |阅读模式
本帖最后由 lhm2001 于 2017-9-20 21:37 编辑








GNZ48 Team Z 《代号·林和西》:https://pan.baidu.com/s/1gfMndjd 密码: qrmc
回复

使用道具 举报

213

主题

353

帖子

737

积分

高级会员

Rank: 4

积分
737
 楼主| 发表于 2017-9-16 07:05:32 | 显示全部楼层
GNZ48 Team Z 剧场公演《代号·林和西》E01 新公演首演 [2017-09-15 19:35]

[直播源码 / 未重编码 / MP4封装 / 1920x1080 25p]

General
Complete name                            : GNZ48 Team Z 剧场公演《代号·林和西》E01 新公演首演 [2017-09-15 19.35][5m1080p25][SH(D)].mp4
Format                                   : MPEG-4
Format profile                           : Base Media
Codec ID                                 : isom
File size                                : 5.52 GiB
Duration                                 : 2h 39mn
Overall bit rate mode                    : Constant
Overall bit rate                         : 4 955 Kbps
Writing application                      : Lavf57.71.100

Video
ID                                       : 1
Format                                   : AVC
Format/Info                              : Advanced Video Codec
Format profile                           : High@L4
Format settings, CABAC                   : Yes
Format settings, ReFrames                : 2 frames
Codec ID                                 : avc1
Codec ID/Info                            : Advanced Video Coding
Duration                                 : 2h 39mn
Bit rate mode                            : Constant
Bit rate                                 : 5 000 Kbps
Width                                    : 1 920 pixels
Height                                   : 1 080 pixels
Display aspect ratio                     : 16:9
Frame rate mode                          : Constant
Frame rate                               : 25.000 fps
Color space                              : YUV
Chroma subsampling                       : 4:2:0
Bit depth                                : 8 bits
Scan type                                : Progressive
Bits/(Pixel*Frame)                       : 0.096
Stream size                              : 5.37 GiB (97%)

Audio
ID                                       : 2
Format                                   : AAC
Format/Info                              : Advanced Audio Codec
Format profile                           : LC
Codec ID                                 : 40
Duration                                 : 2h 39mn
Bit rate mode                            : Constant
Bit rate                                 : 126 Kbps
Channel(s)                               : 2 channels
Channel positions                        : Front: L R
Sampling rate                            : 44.1 KHz
Compression mode                         : Lossy
Stream size                              : 144 MiB (3%)


    本场官网直播在合照处中断数秒,击掌处中断数分钟,截取B站直播信号填补,整场视频完整无缺。
回复 支持 反对

使用道具 举报

213

主题

353

帖子

737

积分

高级会员

Rank: 4

积分
737
 楼主| 发表于 2017-9-16 07:08:22 | 显示全部楼层
本帖最后由 lhm2001 于 2017-9-19 13:28 编辑
GNZ48 Team Z 剧场公演《代号·林和西》E02 [2017-09-16 19:00]

[直播源码 / 未重编码 / MP4封装 / 1920x1080 25p]

General
Complete name                            : GNZ48 Team Z 剧场公演《代号·林和西》E02 [2017-09-16 19.00][5m1080p25][SS].mp4
Format                                   : MPEG-4
Format profile                           : Base Media
Codec ID                                 : isom
File size                                : 5.85 GiB
Duration                                 : 2h 43mn
Overall bit rate mode                    : Constant
Overall bit rate                         : 5 125 Kbps
Writing application                      : Lavf57.71.100

Video
ID                                       : 1
Format                                   : AVC
Format/Info                              : Advanced Video Codec
Format profile                           : High@L4
Format settings, CABAC                   : Yes
Format settings, ReFrames                : 2 frames
Codec ID                                 : avc1
Codec ID/Info                            : Advanced Video Coding
Duration                                 : 2h 43mn
Bit rate mode                            : Constant
Bit rate                                 : 5 000 Kbps
Width                                    : 1 920 pixels
Height                                   : 1 080 pixels
Display aspect ratio                     : 16:9
Frame rate mode                          : Constant
Frame rate                               : 25.000 fps
Color space                              : YUV
Chroma subsampling                       : 4:2:0
Bit depth                                : 8 bits
Scan type                                : Progressive
Bits/(Pixel*Frame)                       : 0.096
Stream size                              : 5.70 GiB (97%)

Audio
ID                                       : 2
Format                                   : AAC
Format/Info                              : Advanced Audio Codec
Format profile                           : LC
Codec ID                                 : 40
Duration                                 : 2h 43mn
Bit rate mode                            : Constant
Bit rate                                 : 128 Kbps
Channel(s)                               : 2 channels
Channel positions                        : Front: L R
Sampling rate                            : 44.1 KHz
Compression mode                         : Lossy
Stream size                              : 150 MiB (3%)


    本场信号稳定,视频完整无缺损。
回复 支持 反对

使用道具 举报

213

主题

353

帖子

737

积分

高级会员

Rank: 4

积分
737
 楼主| 发表于 2017-9-16 07:09:03 | 显示全部楼层
本帖最后由 lhm2001 于 2017-9-19 13:44 编辑
GNZ48 Team Z 剧场公演《代号·林和西》E03 [2017-09-17 19:06]

[直播源码 / 未重编码 / MP4封装 / 1920x1080 25p]

General
Complete name                            : GNZ48 Team Z 剧场公演《代号·林和西》E03 [2017-09-17 19.06][5m1080p25][SP(SS)].mp4
Format                                   : MPEG-4
Format profile                           : Base Media
Codec ID                                 : isom
File size                                : 5.18 GiB
Duration                                 : 2h 24mn
Overall bit rate mode                    : Constant
Overall bit rate                         : 5 122 Kbps
Writing application                      : Lavf57.71.100

Video
ID                                       : 1
Format                                   : AVC
Format/Info                              : Advanced Video Codec
Format profile                           : High@L4
Format settings, CABAC                   : Yes
Format settings, ReFrames                : 2 frames
Format settings, GOP                     : M=3, N=75
Codec ID                                 : avc1
Codec ID/Info                            : Advanced Video Coding
Duration                                 : 2h 24mn
Bit rate mode                            : Constant
Bit rate                                 : 5 000 Kbps
Width                                    : 1 920 pixels
Height                                   : 1 080 pixels
Display aspect ratio                     : 16:9
Frame rate mode                          : Constant
Frame rate                               : 25.000 fps
Color space                              : YUV
Chroma subsampling                       : 4:2:0
Bit depth                                : 8 bits
Scan type                                : Progressive
Bits/(Pixel*Frame)                       : 0.096
Stream size                              : 5.04 GiB (97%)

Audio
ID                                       : 2
Format                                   : AAC
Format/Info                              : Advanced Audio Codec
Format profile                           : LC
Codec ID                                 : 40
Duration                                 : 2h 24mn
Bit rate mode                            : Constant
Bit rate                                 : 126 Kbps
Channel(s)                               : 2 channels
Channel positions                        : Front: L R
Sampling rate                            : 44.1 KHz
Compression mode                         : Lossy
Stream size                              : 131 MiB (2%)


    本场直播信号中间卡顿处,截取官网回放完好信号替换,整场视频完整无缺损。
回复 支持 反对

使用道具 举报

213

主题

353

帖子

737

积分

高级会员

Rank: 4

积分
737
 楼主| 发表于 2017-9-16 07:09:27 | 显示全部楼层
4
[img][/img]
[直播源码 / 未重编码 / MP4封装 / 1920x1080 25p]


    本场直播信号稳定,视频完整无缺损。
回复 支持 反对

使用道具 举报

213

主题

353

帖子

737

积分

高级会员

Rank: 4

积分
737
 楼主| 发表于 2017-9-16 07:09:58 | 显示全部楼层
5
[img][/img]
[直播源码 / 未重编码 / MP4封装 / 1920x1080 25p]


    本场直播信号稳定,视频完整无缺损。
回复 支持 反对

使用道具 举报

213

主题

353

帖子

737

积分

高级会员

Rank: 4

积分
737
 楼主| 发表于 2017-9-16 07:13:45 | 显示全部楼层
6
[img][/img]
[直播源码 / 未重编码 / MP4封装 / 1920x1080 25p]


    本场直播信号稳定,视频完整无缺损。
回复 支持 反对

使用道具 举报

213

主题

353

帖子

737

积分

高级会员

Rank: 4

积分
737
 楼主| 发表于 2017-9-16 07:14:06 | 显示全部楼层
7
[img][/img]
[直播源码 / 未重编码 / MP4封装 / 1920x1080 25p]


    本场直播信号稳定,视频完整无缺损。
回复 支持 反对

使用道具 举报

213

主题

353

帖子

737

积分

高级会员

Rank: 4

积分
737
 楼主| 发表于 2017-9-16 07:14:23 | 显示全部楼层
8
[img][/img]
[直播源码 / 未重编码 / MP4封装 / 1920x1080 25p]


    本场直播信号稳定,视频完整无缺损。
回复 支持 反对

使用道具 举报

213

主题

353

帖子

737

积分

高级会员

Rank: 4

积分
737
 楼主| 发表于 2017-9-16 07:14:46 | 显示全部楼层
9
[img][/img]
[直播源码 / 未重编码 / MP4封装 / 1920x1080 25p]


    本场直播信号稳定,视频完整无缺损。
回复 支持 反对

使用道具 举报

您需要登录后才可以回帖 登录 | 立即注册

本版积分规则

Archiver|手机版|小黑屋|GNZ48官方粉丝俱乐部 ( 粤ICP备16056161号  

GMT+8, 2019-1-19 02:58 , Processed in 0.051748 second(s), 12 queries , Apc On.

Powered by Discuz! X3.2

© 2001-2013 Comsenz Inc.

快速回复 返回顶部 返回列表