设为首页收藏本站

查看: 630|回复: 2

[视频资源] 【公演】20170923 Team NIII 《第1人称》E42

[复制链接]

213

主题

353

帖子

737

积分

高级会员

Rank: 4

积分
737
发表于 2017-9-27 20:09:06 | 显示全部楼层 |阅读模式
GNZ48 Team NIII 剧场公演《第1人称》E42 [2017-09-23 14:10]

演出成员:
GNZ48 Team NIII
  1. 陈楠茜 Chen Nan Xi
  2. 陈欣妤 Chen Xin Yu
  3. 冯嘉希 Feng Jia Xi
  4. 高雪逸 Gao Xue Yi
  5. 洪静雯 Hong Jing Wen
  6. 刘力菲 Liu Li Fei
  7. 卢 静 Lu Jing
  8. 唐莉佳 Tang Li Jia
  9. 唐诗怡 Tang Shi Yi
  10. 冼燊楠 Xian Shen Nan
  11. 肖文铃 Xiao Wen Ling
  12. 谢艾琳 Xie Ai Lin
  13. 熊心瑶 Xiong Xin Yao
  14. 左嘉欣 Zuo Jia Xin
  15. 左婧媛 Zuo Jing Yuan
复制代码
GNZ48 Team Z
  1. 王秭歆 Wang Zi Xin
复制代码




[直播源码 / 未重编码 / MP4封装 / 1920x1080 25p]

General
Complete name                            : GNZ48 Team NIII 剧场公演《第1人称》E42 [2017-09-23 14.10][5m1080p25][SP(D)].mp4
Format                                   : MPEG-4
Format profile                           : Base Media
Codec ID                                 : isom
File size                                : 6.00 GiB
Duration                                 : 2h 48mn
Overall bit rate mode                    : Constant
Overall bit rate                         : 5 115 Kbps
Writing application                      : Lavf57.71.100

Video
ID                                       : 1
Format                                   : AVC
Format/Info                              : Advanced Video Codec
Format profile                           : High@L4
Format settings, CABAC                   : Yes
Format settings, ReFrames                : 2 frames
Format settings, GOP                     : M=3, N=75
Codec ID                                 : avc1
Codec ID/Info                            : Advanced Video Coding
Duration                                 : 2h 48mn
Bit rate mode                            : Constant
Bit rate                                 : 5 000 Kbps
Width                                    : 1 920 pixels
Height                                   : 1 080 pixels
Display aspect ratio                     : 16:9
Frame rate mode                          : Variable
Frame rate                               : 25.000 fps
Minimum frame rate                       : 0.192 fps
Maximum frame rate                       : 25.000 fps
Color space                              : YUV
Chroma subsampling                       : 4:2:0
Bit depth                                : 8 bits
Scan type                                : Progressive
Bits/(Pixel*Frame)                       : 0.096
Stream size                              : 5.85 GiB (97%)

Audio
ID                                       : 2
Format                                   : AAC
Format/Info                              : Advanced Audio Codec
Format profile                           : LC
Codec ID                                 : 40
Duration                                 : 2h 48mn
Bit rate mode                            : Constant
Bit rate                                 : 126 Kbps
Channel(s)                               : 2 channels
Channel positions                        : Front: L R
Sampling rate                            : 44.1 KHz
Compression mode                         : Lossy
Stream size                              : 151 MiB (2%)


GNZ48 Team NIII 剧场公演《第一人称》:

链接:https://pan.baidu.com/s/1kVsRzsb 密码: snxw
回复

使用道具 举报

213

主题

353

帖子

737

积分

高级会员

Rank: 4

积分
737
 楼主| 发表于 2017-9-27 20:16:18 | 显示全部楼层
MC2官网直播及回放中断处,截取斗鱼信号填补上,整场完整无缺。另外击掌环节有一处画面卡了一下未处理。
回复 支持 反对

使用道具 举报

0

主题

307

帖子

1049

积分

金牌会员

Rank: 6Rank: 6

积分
1049
发表于 2017-9-28 16:32:25 | 显示全部楼层
多谢分享了~
回复 支持 反对

使用道具 举报

您需要登录后才可以回帖 登录 | 立即注册

本版积分规则

Archiver|手机版|小黑屋|GNZ48官方粉丝俱乐部 ( 粤ICP备16056161号  

GMT+8, 2019-1-19 02:35 , Processed in 0.037377 second(s), 11 queries , Apc On.

Powered by Discuz! X3.2

© 2001-2013 Comsenz Inc.

快速回复 返回顶部 返回列表