设为首页收藏本站

查看: 1940|回复: 4

[视频资源] 【公演】20171004 Team G & Team Z 中秋节联合特别公演

[复制链接]

213

主题

353

帖子

737

积分

高级会员

Rank: 4

积分
737
发表于 2017-10-4 18:09:51 | 显示全部楼层 |阅读模式
本帖最后由 lhm2001 于 2017-10-8 02:21 编辑
GNZ48「中秋节」联合特别公演 [Team G & Team Z][2017-10-04 14:25]


General
Complete name                            : GNZ48「中秋节」联合特别公演 [Team G & Team Z][2017-10-04 14.25][5m1080p25][SP].mp4
Format                                   : MPEG-4
Format profile                           : Base Media
Codec ID                                 : isom
File size                                : 6.92 GiB
Duration                                 : 3h 13mn
Overall bit rate mode                    : Constant
Overall bit rate                         : 5 130 Kbps
Writing application                      : Lavf57.71.100

Video
ID                                       : 1
Format                                   : AVC
Format/Info                              : Advanced Video Codec
Format profile                           : High@L4
Format settings, CABAC                   : Yes
Format settings, ReFrames                : 2 frames
Codec ID                                 : avc1
Codec ID/Info                            : Advanced Video Coding
Duration                                 : 3h 13mn
Bit rate mode                            : Constant
Bit rate                                 : 5 000 Kbps
Width                                    : 1 920 pixels
Height                                   : 1 080 pixels
Display aspect ratio                     : 16:9
Frame rate mode                          : Constant
Frame rate                               : 25.000 fps
Color space                              : YUV
Chroma subsampling                       : 4:2:0
Bit depth                                : 8 bits
Scan type                                : Progressive
Bits/(Pixel*Frame)                       : 0.096
Stream size                              : 6.74 GiB (97%)

Audio
ID                                       : 2
Format                                   : AAC
Format/Info                              : Advanced Audio Codec
Format profile                           : LC
Codec ID                                 : 40
Duration                                 : 3h 13mn
Bit rate mode                            : Constant
Bit rate                                 : 126 Kbps
Channel(s)                               : 2 channels
Channel positions                        : Front: L R
Sampling rate                            : 44.1 KHz
Compression mode                         : Lossy
Stream size                              : 173 MiB (2%)


本场直播信号稳定,视频完整无缺损。链接:https://pan.baidu.com/s/1eRI3qEm

官网回放(可下载可在线播放):http://ts.snh48.com/vod/z1.chaoqing.3001/20171004/59c225c60cf25f588029b751.mp4
回复

使用道具 举报

0

主题

307

帖子

1049

积分

金牌会员

Rank: 6Rank: 6

积分
1049
发表于 2017-10-4 21:35:19 | 显示全部楼层
多谢分享了~
回复 支持 反对

使用道具 举报

0

主题

2

帖子

6

积分

练习生

Rank: 1

积分
6
发表于 2017-10-7 21:41:10 | 显示全部楼层
感谢~聚聚辛苦了!
。。。
回复 支持 反对

使用道具 举报

0

主题

3

帖子

21

积分

练习生

Rank: 1

积分
21
发表于 2017-11-4 11:11:15 | 显示全部楼层
感謝分享~
另外聚聚能順便分享萬聖節特殊公演嗎?
萬分感謝
回复 支持 反对

使用道具 举报

0

主题

14

帖子

436

积分

中级会员

Rank: 3Rank: 3

积分
436
发表于 2018-10-17 01:42:24 | 显示全部楼层
多谢分享~
天蝎座的aoyoutian
回复

使用道具 举报

您需要登录后才可以回帖 登录 | 立即注册

本版积分规则

Archiver|手机版|小黑屋|GNZ48官方粉丝俱乐部 ( 粤ICP备16056161号  

GMT+8, 2019-1-19 02:31 , Processed in 0.048897 second(s), 18 queries , Apc On.

Powered by Discuz! X3.2

© 2001-2013 Comsenz Inc.

快速回复 返回顶部 返回列表