设为首页收藏本站

查看: 3705|回复: 5

[视频资源] 【公演】20171005 Team NIII 《第1人称》E44

[复制链接]

213

主题

353

帖子

737

积分

高级会员

Rank: 4

积分
737
发表于 2017-10-9 03:55:24 | 显示全部楼层 |阅读模式
GNZ48 Team NIII 剧场公演《第1人称》E44 [2017-10-05 19:10]

演出成员:GNZ48 Team NIII
  1. 陈慧婧 Chen Hui Jing
  2. 陈楠茜 Chen Nan Xi
  3. 陈欣妤 Chen Xin Yu
  4. 冯嘉希 Feng Jia Xi
  5. 洪静雯 Hong Jing Wen
  6. 李伊虹 Li Yi Hong
  7. 刘力菲 Liu Li Fei
  8. 刘倩倩 Liu Qian Qian
  9. 卢 静 Lu Jing
  10. 孙 馨 Sun Xin
  11. 唐莉佳 Tang Li Jia
  12. 冼燊楠 Xian Shen Nan
  13. 肖文铃 Xiao Wen Ling
  14. 熊心瑶 Xiong Xin Yao
  15. 郑丹妮 Zheng Dan Ni
  16. 左嘉欣 Zuo Jia Xin
  17. 左婧媛 Zuo Jing Yuan
复制代码




[直播源码 / 未重编码 / MP4封装 / 1920x1080 25p]

General
Complete name                            : GNZ48 Team NIII 剧场公演《第1人称》E44 [2017-10-05 19.10][5m1080p25][SS+SQ+B+SP].mp4
Format                                   : MPEG-4
Format profile                           : Base Media
Codec ID                                 : isom
File size                                : 6.85 GiB
Duration                                 : 3h 11mn
Overall bit rate mode                    : Constant
Overall bit rate                         : 5 110 Kbps
Writing application                      : Lavf57.71.100

Video
ID                                       : 1
Format                                   : AVC
Format/Info                              : Advanced Video Codec
Format profile                           : High@L4
Format settings, CABAC                   : Yes
Format settings, ReFrames                : 2 frames
Format settings, GOP                     : M=3, N=75
Codec ID                                 : avc1
Codec ID/Info                            : Advanced Video Coding
Duration                                 : 3h 11mn
Bit rate mode                            : Constant
Bit rate                                 : 5 000 Kbps
Width                                    : 1 920 pixels
Height                                   : 1 080 pixels
Display aspect ratio                     : 16:9
Frame rate mode                          : Constant
Frame rate                               : 25.000 fps
Color space                              : YUV
Chroma subsampling                       : 4:2:0
Bit depth                                : 8 bits
Scan type                                : Progressive
Bits/(Pixel*Frame)                       : 0.096
Stream size                              : 6.67 GiB (97%)

Audio
ID                                       : 2
Format                                   : AAC
Format/Info                              : Advanced Audio Codec
Format profile                           : LC
Codec ID                                 : 40
Duration                                 : 3h 11mn
Bit rate mode                            : Constant
Bit rate                                 : 127 Kbps
Channel(s)                               : 2 channels
Channel positions                        : Front: L R
Sampling rate                            : 44.1 KHz
Compression mode                         : Lossy
Stream size                              : 174 MiB (2%)


GNZ48 Team NIII 剧场公演《第一人称》:

链接:https://pan.baidu.com/s/1kVsRzsb 密码: snxw
回复

使用道具 举报

213

主题

353

帖子

737

积分

高级会员

Rank: 4

积分
737
 楼主| 发表于 2017-10-9 04:09:10 | 显示全部楼层
本场官网直播信号不稳定中断数次,官网回放视频文件也坏了,后面音频错位。
因此本视频文件由官网直播、官网回放、哔哩直播共7段完好文件拼接而成:
0:00:00~1:23:18 官网回放
1:23:18~1:44:00 官网直播
1:44:00~1:44:42 哔哩直播
1:44:42~2:01:09 官网直播
2:01:09~2:01:51 哔哩直播
2:01:51~2:26:48 官网直播
2:26:48~3:11:54 官网直播
其中2段哔哩直播42秒视频为3mbps,其余为5mbps。

整场公演视频完整无缺。
回复 支持 反对

使用道具 举报

0

主题

307

帖子

1049

积分

金牌会员

Rank: 6Rank: 6

积分
1049
发表于 2017-10-9 15:23:18 | 显示全部楼层
多谢分享了~
回复 支持 反对

使用道具 举报

0

主题

1

帖子

1

积分

练习生

Rank: 1

积分
1
发表于 2017-10-18 14:13:31 | 显示全部楼层
厉害了!!!
回复

使用道具 举报

0

主题

1

帖子

25

积分

练习生

Rank: 1

积分
25
发表于 2017-12-20 00:26:08 | 显示全部楼层
辛苦了!!!
回复

使用道具 举报

3

主题

5

帖子

7

积分

练习生

Rank: 1

积分
7
发表于 2018-5-8 18:51:39 | 显示全部楼层
很好我已经下载全部的分多次才能下载完毕再次感谢
回复 支持 反对

使用道具 举报

您需要登录后才可以回帖 登录 | 立即注册

本版积分规则

Archiver|手机版|小黑屋|GNZ48官方粉丝俱乐部 ( 粤ICP备16056161号  

GMT+8, 2019-1-19 02:08 , Processed in 0.047465 second(s), 17 queries , Apc On.

Powered by Discuz! X3.2

© 2001-2013 Comsenz Inc.

快速回复 返回顶部 返回列表