设为首页收藏本站

查看: 1787|回复: 10

[视频资源] 【公演】20170408 GNZ48 『丝芭偶像节』特别公演

[复制链接]

213

主题

353

帖子

737

积分

高级会员

Rank: 4

积分
737
发表于 2017-4-10 04:58:32 | 显示全部楼层 |阅读模式
本帖最后由 lhm2001 于 2017-4-11 22:01 编辑

下午公演链接: http://pan.baidu.com/s/1jIkKy70 密码: 65y6
晚上公演链接: http://pan.baidu.com/s/1hrLghLE 密码: grm3

回复

使用道具 举报

213

主题

353

帖子

737

积分

高级会员

Rank: 4

积分
737
 楼主| 发表于 2017-4-10 05:07:26 | 显示全部楼层
本帖最后由 lhm2001 于 2017-4-10 05:09 编辑
GNZ48 三队联合『丝芭偶像节』特别公演(上)[2017-04-08 13:30]

[直播源码 / 未重编码 / MP4封装 / 1920x1080 25p]
(视频源:[B]=B站;[D]=斗鱼;[P]=口袋48;[Q]=腾讯;[S]=SNH48;[T]=贴吧)

General
Complete name                            : GNZ48 三队联合『丝芭偶像节』特别公演(上)[2017-04-08 13.30][3.8m1080p25][SS].mp4
Format                                   : MPEG-4
Format profile                           : Base Media
Codec ID                                 : isom
File size                                : 6.90 GiB
Duration                                 : 4h 11mn
Overall bit rate mode                    : Constant
Overall bit rate                         : 3 926 Kbps
Writing application                      : Lavf54.61.104

Video
ID                                       : 1
Format                                   : AVC
Format/Info                              : Advanced Video Codec
Format profile                           : High@L4
Format settings, CABAC                   : Yes
Format settings, ReFrames                : 2 frames
Format settings, GOP                     : M=3, N=75
Codec ID                                 : avc1
Codec ID/Info                            : Advanced Video Coding
Duration                                 : 4h 11mn
Bit rate mode                            : Constant
Bit rate                                 : 3 800 Kbps
Width                                    : 1 920 pixels
Height                                   : 1 080 pixels
Display aspect ratio                     : 16:9
Frame rate mode                          : Constant
Frame rate                               : 25.000 fps
Color space                              : YUV
Chroma subsampling                       : 4:2:0
Bit depth                                : 8 bits
Scan type                                : Progressive
Bits/(Pixel*Frame)                       : 0.073
Stream size                              : 6.66 GiB (97%)

Audio
ID                                       : 2
Format                                   : AAC
Format/Info                              : Advanced Audio Codec
Format profile                           : LC
Codec ID                                 : 40
Duration                                 : 4h 11mn
Bit rate mode                            : Constant
Bit rate                                 : 128 Kbps
Channel(s)                               : 2 channels
Channel positions                        : Front: L R
Sampling rate                            : 44.1 KHz
Compression mode                         : Lossy
Stream size                              : 231 MiB (3%)


本场视频完整无缺损。
回复 支持 反对

使用道具 举报

213

主题

353

帖子

737

积分

高级会员

Rank: 4

积分
737
 楼主| 发表于 2017-4-10 05:08:10 | 显示全部楼层
本帖最后由 lhm2001 于 2017-4-11 02:41 编辑
GNZ48 三队联合『丝芭偶像节』特别公演(下)[2017-04-08 19:59]

[直播源码 / 未重编码 / MP4封装 / 1920x1080 25p]
(视频源:[B]=B站;[D]=斗鱼;[P]=口袋48;[Q]=腾讯;[S]=SNH48;[T]=贴吧)

General
Complete name                            : GNZ48 三队联合『丝芭偶像节』特别公演(下)[2017-04-08 19.59][3.8m1080p25][SS+D].mp4
Format                                   : MPEG-4
Format profile                           : Base Media
Codec ID                                 : isom
File size                                : 7.76 GiB
Duration                                 : 4h 43mn
Overall bit rate mode                    : Constant
Overall bit rate                         : 3 919 Kbps
Writing application                      : Lavf54.61.104

Video
ID                                       : 1
Format                                   : AVC
Format/Info                              : Advanced Video Codec
Format profile                           : High@L4
Format settings, CABAC                   : Yes
Format settings, ReFrames                : 2 frames
Format settings, GOP                     : M=3, N=75
Codec ID                                 : avc1
Codec ID/Info                            : Advanced Video Coding
Duration                                 : 4h 43mn
Bit rate mode                            : Constant
Bit rate                                 : 3 800 Kbps
Width                                    : 1 920 pixels
Height                                   : 1 080 pixels
Display aspect ratio                     : 16:9
Frame rate mode                          : Constant
Frame rate                               : 25.000 fps
Color space                              : YUV
Chroma subsampling                       : 4:2:0
Bit depth                                : 8 bits
Scan type                                : Progressive
Bits/(Pixel*Frame)                       : 0.073
Stream size                              : 7.49 GiB (97%)

Audio
ID                                       : 2
Format                                   : AAC
Format/Info                              : Advanced Audio Codec
Format profile                           : LC
Codec ID                                 : 40
Duration                                 : 4h 43mn
Bit rate mode                            : Constant
Bit rate                                 : 127 Kbps
Channel(s)                               : 2 channels
Channel positions                        : Front: L R
Sampling rate                            : 44.1 KHz
Compression mode                         : Lossy
Stream size                              : 257 MiB (3%)


本场官网直播击掌部分还没结束信号就没了,截取斗鱼信号拼接上,整场公演完整。
回复 支持 反对

使用道具 举报

39

主题

63

帖子

227

积分

中级会员

Rank: 3Rank: 3

积分
227
发表于 2017-4-10 10:58:04 | 显示全部楼层
下没有链接
回复 支持 反对

使用道具 举报

0

主题

307

帖子

1049

积分

金牌会员

Rank: 6Rank: 6

积分
1049
发表于 2017-4-10 11:45:48 | 显示全部楼层
多谢分享~
回复

使用道具 举报

0

主题

45

帖子

95

积分

正式会员

Rank: 2

积分
95
发表于 2017-4-10 14:38:50 | 显示全部楼层
终于等到了,感谢聚聚分享
回复 支持 反对

使用道具 举报

0

主题

4

帖子

26

积分

练习生

Rank: 1

积分
26
发表于 2017-4-10 17:31:57 | 显示全部楼层
下的链接怎么没有
回复 支持 反对

使用道具 举报

213

主题

353

帖子

737

积分

高级会员

Rank: 4

积分
737
 楼主| 发表于 2017-4-11 22:00:39 | 显示全部楼层
上、下均已传完。
回复 支持 反对

使用道具 举报

0

主题

14

帖子

436

积分

中级会员

Rank: 3Rank: 3

积分
436
发表于 2017-4-11 23:10:05 | 显示全部楼层
谢谢分享!!
天蝎座的aoyoutian
回复

使用道具 举报

0

主题

12

帖子

136

积分

正式会员

Rank: 2

积分
136
发表于 2017-4-11 23:30:13 | 显示全部楼层
支持楼主,不过楼主好像把上下场之间 三队队员进行趣味小游戏直播的部分切掉了?
回复 支持 反对

使用道具 举报

您需要登录后才可以回帖 登录 | 立即注册

本版积分规则

Archiver|手机版|小黑屋|GNZ48官方粉丝俱乐部 ( 粤ICP备16056161号  

GMT+8, 2019-1-19 02:35 , Processed in 0.052104 second(s), 12 queries , Apc On.

Powered by Discuz! X3.2

© 2001-2013 Comsenz Inc.

快速回复 返回顶部 返回列表